<?xml version="1.0" standalone="no"?>
<!DOCTYPE svg PUBLIC "-//W3C//DTD SVG 1.1//EN" "http://www.w3.org/Graphics/SVG/1.1/DTD/svg11.dtd" >
<svg xmlns="http://www.w3.org/2000/svg" xmlns:xlink="http://www.w3.org/1999/xlink" version="1.1">
<metadata>
Created by FontForge 20201107 at Mon Oct 25 17:33:40 2021
 By 
Copyright 2011 The Montserrat Project Authors (https://github.com/JulietaUla/Montserrat)
</metadata>
<defs>
<font id="Montserrat-Medium" horiz-adv-x="0" >
  <font-face 
    font-family="Montserrat Medium"
    font-weight="500"
    font-stretch="normal"
    units-per-em="1000"
    panose-1="0 0 0 0 0 0 0 0 0 0"
    ascent="800"
    descent="-200"
    x-height="530"
    cap-height="700"
    bbox="-190 -263 1613 1053"
    underline-thickness="50"
    underline-position="-125"
    unicode-range="U+000D-FB02"
  />
<missing-glyph horiz-adv-x="587" 
d="M40 0v700h507v-700h-507zM120 70h347v560h-347v-560z" />
    <glyph glyph-name="fi" unicode="fi" horiz-adv-x="632" 
d="M105 0v577q0 78 45.5 124.5t129.5 46.5q31 0 59.5 -7.5t48.5 -23.5l-29 -73q-15 12 -34 18.5t-40 6.5q-42 0 -64 -23.5t-22 -69.5v-71l2 -44v-461h-96zM15 451v79h338v-79h-338zM444 0v530h96v-530h-96zM492 632q-28 0 -46.5 18t-18.5 44q0 27 18.5 45t46.5 18
t46.5 -17.5t18.5 -43.5q0 -27 -18 -45.5t-47 -18.5z" />
    <glyph glyph-name="fl" unicode="fl" horiz-adv-x="632" 
d="M105 0v577q0 78 45.5 124.5t129.5 46.5q31 0 59.5 -7.5t48.5 -23.5l-29 -73q-15 12 -34 18.5t-40 6.5q-42 0 -64 -23.5t-22 -69.5v-71l2 -44v-461h-96zM15 451v79h338v-79h-338zM444 0v742h96v-742h-96z" />
    <glyph glyph-name=".notdef" horiz-adv-x="587" 
d="M40 0v700h507v-700h-507zM120 70h347v560h-347v-560z" />
    <glyph glyph-name=".null" 
 />
    <glyph glyph-name="nonmarkingreturn" horiz-adv-x="333" 
 />
    <glyph glyph-name="NULL" 
 />
    <glyph glyph-name="NULL" 
 />
    <glyph glyph-name="CR" unicode="&#xd;" horiz-adv-x="269" 
 />
    <glyph glyph-name="space" unicode=" " horiz-adv-x="269" 
 />
    <glyph glyph-name="exclam" unicode="!" horiz-adv-x="268" 
d="M96 221l-18 479h113l-19 -479h-76zM135 -6q-28 0 -47 19t-19 45q0 28 19 46t47 18t46 -18t18 -46q0 -26 -18 -45t-46 -19z" />
    <glyph glyph-name="quotedbl" unicode="&#x22;" horiz-adv-x="391" 
d="M69 430l-6 270h84l-7 -270h-71zM250 430l-6 270h84l-7 -270h-71z" />
    <glyph glyph-name="numbersign" unicode="#" horiz-adv-x="703" 
d="M403 0l86 700h71l-86 -700h-71zM27 180v73h617v-73h-617zM143 0l87 700h71l-87 -700h-71zM59 447v73h617v-73h-617z" />
    <glyph glyph-name="dollar" unicode="$" horiz-adv-x="621" 
d="M284 -120v940h64v-940h-64zM309 -8q-80 0 -153 24.5t-115 63.5l37 78q40 -35 102 -58t129 -23q61 0 99 14t56 38.5t18 55.5q0 36 -23.5 58t-61 35.5t-82.5 23.5t-90.5 23.5t-83 34.5t-60.5 56.5t-23 91.5q0 54 28.5 99.5t88 73t151.5 27.5q61 0 121 -16t104 -46l-33 -80
q-45 30 -95 43.5t-97 13.5q-59 0 -97 -15t-55.5 -40t-17.5 -56q0 -37 23.5 -59t61 -35t82.5 -23.5t90.5 -23.5t83 -34t60.5 -56t23 -90q0 -53 -29 -98.5t-89.5 -73t-152.5 -27.5z" />
    <glyph glyph-name="percent" unicode="%" horiz-adv-x="843" 
d="M144 0l478 700h77l-478 -700h-77zM200 324q-48 0 -85 24t-57.5 67t-20.5 100t20.5 100t57.5 67t85 24q49 0 85.5 -24t56.5 -67t20 -100t-20 -100t-56.5 -67t-85.5 -24zM200 381q46 0 72 35.5t26 98.5t-26 98.5t-72 35.5q-45 0 -71.5 -35.5t-26.5 -98.5q0 -62 26.5 -98
t71.5 -36zM643 -6q-48 0 -85 24t-57 67t-20 100t20 100t57 67t85 24q49 0 85.5 -24t57 -67t20.5 -100t-20.5 -100t-57 -67t-85.5 -24zM643 51q45 0 71.5 35.5t26.5 98.5q0 62 -26.5 98t-71.5 36t-71.5 -35.5t-26.5 -98.5t26.5 -98.5t71.5 -35.5z" />
    <glyph glyph-name="ampersand" unicode="&#x26;" horiz-adv-x="686" 
d="M290 -8q-71 0 -126 23t-87 64t-32 95q0 47 21 86t67 75.5t121 75.5q61 32 95.5 56t49 45.5t14.5 46.5q0 34 -24 55.5t-69 21.5q-47 0 -73.5 -23.5t-26.5 -61.5q0 -19 6.5 -36.5t24 -39t50.5 -54.5l370 -368l-54 -64l-393 391q-35 35 -55 62.5t-29 53.5t-9 53
q0 47 23.5 82.5t66 55t99.5 19.5q53 0 92 -17.5t60.5 -50t21.5 -78.5q0 -40 -19.5 -74t-62.5 -66t-116 -69q-60 -31 -94 -57.5t-48.5 -52.5t-14.5 -57q0 -33 19.5 -58.5t55 -39.5t82.5 -14q67 0 121 29t90.5 87t53.5 144l77 -25q-20 -101 -68.5 -171t-119.5 -107t-160 -37z
" />
    <glyph glyph-name="quotesingle" unicode="'" horiz-adv-x="210" 
d="M69 430l-6 270h84l-7 -270h-71z" />
    <glyph glyph-name="parenleft" unicode="(" horiz-adv-x="337" 
d="M214 -194q-57 91 -88 210.5t-31 257.5t31 258.5t88 209.5h91q-60 -106 -88 -221.5t-28 -246.5t28 -246.5t88 -221.5h-91z" />
    <glyph glyph-name="parenright" unicode=")" horiz-adv-x="338" 
d="M123 -194h-91q61 106 89 221.5t28 246.5t-28 246.5t-89 221.5h91q59 -89 89.5 -209.5t30.5 -258.5t-30.5 -257.5t-89.5 -210.5z" />
    <glyph glyph-name="asterisk" unicode="*" horiz-adv-x="400" 
d="M381 622l-136 -76v19l136 -76l-31 -55l-132 77l11 7l1 -149h-60l1 149l11 -7l-132 -77l-31 55l137 76v-19l-137 76l31 56l132 -78l-11 -7l-1 149h60l-1 -149l-11 7l132 78z" />
    <glyph glyph-name="plus" unicode="+" horiz-adv-x="582" 
d="M249 131v438h84v-438h-84zM67 310v79h448v-79h-448z" />
    <glyph glyph-name="comma" unicode="," horiz-adv-x="227" 
d="M53 -148l50 202l13 -58q-29 0 -48.5 18t-19.5 49q0 30 19.5 49t47.5 19q29 0 47 -19.5t18 -48.5q0 -10 -1.5 -19.5t-5 -22t-10.5 -30.5l-47 -139h-63z" />
    <glyph glyph-name="hyphen" unicode="-" horiz-adv-x="383" 
d="M57 233v83h269v-83h-269z" />
    <glyph glyph-name="period" unicode="." horiz-adv-x="227" 
d="M114 -6q-28 0 -48 19.5t-20 49.5t20 49t48 19q27 0 46.5 -19t19.5 -49t-19.5 -49.5t-46.5 -19.5z" />
    <glyph glyph-name="slash" unicode="/" horiz-adv-x="352" 
d="M-28 -100l330 942h87l-330 -942h-87z" />
    <glyph glyph-name="zero" unicode="0" horiz-adv-x="667" 
d="M334 -8q-82 0 -146.5 42t-102 122t-37.5 194t37.5 194t102 122t146.5 42q81 0 146 -42t102 -122t37 -194t-37 -194t-102 -122t-146 -42zM334 81q55 0 96.5 30t65 90t23.5 149t-23.5 149t-65 90t-96.5 30t-97 -30t-65.5 -90t-23.5 -149t23.5 -149t65.5 -90t97 -30z" />
    <glyph glyph-name="one" unicode="1" horiz-adv-x="370" 
d="M166 0v660l43 -47h-201v87h257v-700h-99z" />
    <glyph glyph-name="two" unicode="2" horiz-adv-x="574" 
d="M37 0v68l285 275q38 36 56.5 63.5t25 51t6.5 45.5q0 54 -38 85t-111 31q-56 0 -101 -18.5t-78 -57.5l-68 59q40 51 107.5 78.5t148.5 27.5q73 0 127 -23.5t83.5 -67.5t29.5 -104q0 -34 -9 -67t-34 -70t-72 -83l-254 -245l-24 39h423v-87h-503z" />
    <glyph glyph-name="three" unicode="3" horiz-adv-x="572" 
d="M262 -8q-74 0 -143.5 23t-113.5 62l46 79q35 -33 91 -54t120 -21q78 0 121.5 33.5t43.5 90.5q0 55 -41.5 88.5t-131.5 33.5h-56v70l208 256l14 -40h-383v87h462v-68l-207 -255l-52 31h33q127 0 190.5 -57t63.5 -145q0 -59 -29 -108t-87.5 -77.5t-148.5 -28.5z" />
    <glyph glyph-name="four" unicode="4" horiz-adv-x="669" 
d="M38 172v70l358 458h108l-355 -458l-51 16h559v-86h-619zM427 0v172l3 86v152h94v-410h-97z" />
    <glyph glyph-name="five" unicode="5" horiz-adv-x="574" 
d="M274 -8q-74 0 -143.5 23t-113.5 62l46 79q35 -33 91 -54t119 -21q80 0 123 34t43 91q0 39 -19 68t-65.5 44.5t-127.5 15.5h-159l37 366h395v-87h-358l52 49l-29 -289l-52 48h135q105 0 169 -27t93 -74.5t29 -109.5q0 -60 -29 -109.5t-87.5 -79t-148.5 -29.5z" />
    <glyph glyph-name="six" unicode="6" horiz-adv-x="617" 
d="M342 -8q-93 0 -159 41t-100.5 118.5t-34.5 189.5q0 119 42 201t117 124t172 42q50 0 95.5 -10t78.5 -31l-38 -78q-27 19 -61.5 26t-72.5 7q-107 0 -170 -66.5t-63 -197.5q0 -21 2 -50t10 -57l-34 34q15 46 47.5 77.5t78 47t98.5 15.5q70 0 124 -26t85 -73.5t31 -112.5
q0 -67 -33 -117t-89 -77t-126 -27zM338 73q46 0 80.5 17t54.5 47.5t20 71.5q0 62 -43 98.5t-117 36.5q-48 0 -84 -18t-56.5 -48.5t-20.5 -69.5q0 -36 19 -66.5t56 -49.5t91 -19z" />
    <glyph glyph-name="seven" unicode="7" horiz-adv-x="598" 
d="M169 0l297 658l26 -45h-416l50 49v-174h-96v212h528v-68l-283 -632h-106z" />
    <glyph glyph-name="eight" unicode="8" horiz-adv-x="644" 
d="M321 -8q-85 0 -147 25t-96 71.5t-34 109.5q0 62 32.5 105.5t94.5 66t150 22.5t150.5 -22.5t95.5 -66.5t33 -105q0 -63 -34 -109.5t-97 -71.5t-148 -25zM321 73q84 0 131.5 34.5t47.5 93.5q0 58 -47.5 91.5t-131.5 33.5q-83 0 -130 -33.5t-47 -91.5q0 -59 47 -93.5
t130 -34.5zM321 338q-80 0 -136 21.5t-86 62t-30 96.5q0 59 31.5 101.5t88.5 65.5t132 23q76 0 133 -23t89 -65.5t32 -101.5q0 -56 -30 -96.5t-87 -62t-137 -21.5zM321 402q73 0 114.5 30t41.5 82q0 53 -43 83t-113 30t-111.5 -30t-41.5 -83q0 -52 40.5 -82t112.5 -30z" />
    <glyph glyph-name="nine" unicode="9" horiz-adv-x="617" 
d="M275 708q95 0 160.5 -41t99.5 -118.5t34 -189.5q0 -119 -42 -201t-116 -124t-173 -42q-49 0 -94.5 10t-79.5 31l38 78q28 -18 62.5 -25.5t72.5 -7.5q106 0 169 66.5t63 197.5q0 21 -2 50t-9 57l33 -34q-14 -46 -46.5 -77.5t-78 -47t-99.5 -15.5q-69 0 -123 26t-85 73.5
t-31 112.5q0 68 32.5 117.5t89 76.5t125.5 27zM279 627q-45 0 -80 -17t-54.5 -47t-19.5 -72q0 -62 43 -98.5t116 -36.5q48 0 84.5 18t57 49t20.5 69q0 37 -19 67t-56 49t-92 19z" />
    <glyph glyph-name="colon" unicode=":" horiz-adv-x="227" 
d="M114 398q-28 0 -48 19.5t-20 49.5t20 49t48 19q27 0 46.5 -19t19.5 -49t-19.5 -49.5t-46.5 -19.5zM114 -6q-28 0 -48 19.5t-20 49.5t20 49t48 19q27 0 46.5 -19t19.5 -49t-19.5 -49.5t-46.5 -19.5z" />
    <glyph glyph-name="semicolon" unicode=";" horiz-adv-x="227" 
d="M114 398q-28 0 -48 19.5t-20 49.5t20 49t48 19q27 0 46.5 -19t19.5 -49t-19.5 -49.5t-46.5 -19.5zM53 -148l50 202l13 -58q-29 0 -48.5 18t-19.5 49q0 30 19.5 49t47.5 19q29 0 47 -19.5t18 -48.5q0 -10 -1.5 -19.5t-5 -22t-10.5 -30.5l-47 -139h-63z" />
    <glyph glyph-name="less" unicode="&#x3c;" horiz-adv-x="582" 
d="M515 130l-448 177v86l448 177v-83l-415 -160v46l415 -160v-83z" />
    <glyph glyph-name="equal" unicode="=" horiz-adv-x="582" 
d="M67 429v79h448v-79h-448zM67 192v79h448v-79h-448z" />
    <glyph glyph-name="greater" unicode="&#x3e;" horiz-adv-x="582" 
d="M67 130v83l416 160v-46l-416 160v83l448 -177v-86z" />
    <glyph glyph-name="question" unicode="?" horiz-adv-x="573" 
d="M228 221q0 39 13 68t32.5 52t42.5 42.5t43 39t32.5 41.5t12.5 51q0 48 -38 78t-105 30q-60 0 -104 -20t-75 -59l-73 52q42 53 107 82.5t152 29.5q72 0 125 -21.5t82.5 -61t29.5 -95.5q0 -42 -13 -72t-33 -53t-42.5 -43t-42.5 -40t-33 -44t-13 -57h-100zM279 -6
q-28 0 -46.5 19t-18.5 45q0 28 18.5 46t46.5 18t46 -18t18 -46q0 -26 -18 -45t-46 -19z" />
    <glyph glyph-name="at" unicode="@" horiz-adv-x="1034" 
d="M516 -202q-104 0 -190 34t-148 95t-96 144.5t-34 182.5t34 182t96.5 144t149.5 94t192 33q103 0 188 -32t147.5 -90.5t96.5 -139t34 -177.5q0 -85 -21 -146t-60.5 -94.5t-96.5 -33.5q-56 0 -89.5 34t-33.5 97v68l5 61l-9 115v133h87v-360q0 -40 16.5 -56t40.5 -16
q29 0 50.5 23t32 67.5t10.5 106.5q0 84 -28.5 152.5t-82 118.5t-126 76.5t-161.5 26.5t-162.5 -28.5t-126.5 -80t-81.5 -122.5t-28.5 -156q0 -86 28 -157.5t80.5 -123t125 -80t161.5 -28.5q46 0 97 10.5t96 33.5l22 -64q-46 -23 -104 -35t-111 -12zM498 -6q-71 0 -126 33.5
t-87 91.5t-32 132q0 75 32 132.5t87 90t126 32.5q69 0 121 -29.5t81.5 -86.5t29.5 -139t-29 -139t-81 -87.5t-122 -30.5zM512 72q49 0 87.5 21.5t61 62t22.5 95.5q0 56 -22.5 96t-61 61t-87.5 21q-50 0 -88.5 -21.5t-60 -61.5t-21.5 -95q0 -54 21.5 -94t60 -62.5t88.5 -22.5
z" />
    <glyph glyph-name="A" unicode="A" horiz-adv-x="732" 
d="M-1 0l317 700h99l318 -700h-105l-283 644h40l-283 -644h-103zM134 175l27 80h394l29 -80h-450z" />
    <glyph glyph-name="B" unicode="B" horiz-adv-x="757" 
d="M105 0v700h314q121 0 186 -48.5t65 -132.5q0 -57 -25.5 -96t-68.5 -60t-93 -21l18 30q60 0 106 -21t73 -61.5t27 -100.5q0 -90 -67.5 -139.5t-200.5 -49.5h-334zM205 81h230q83 0 127 28t44 88q0 61 -44 89t-127 28h-239v81h214q76 0 118 28t42 84t-42 84t-118 28h-205
v-538z" />
    <glyph glyph-name="C" unicode="C" horiz-adv-x="723" 
d="M418 -8q-80 0 -147.5 26.5t-117 75t-77.5 113.5t-28 143t28 143t78 113.5t117.5 75t147.5 26.5q81 0 149.5 -27.5t116.5 -81.5l-65 -63q-40 42 -90 62.5t-107 20.5q-59 0 -109.5 -20t-87.5 -56t-57.5 -85.5t-20.5 -107.5t20.5 -107.5t57.5 -85.5t87.5 -56t109.5 -20
q57 0 107 20.5t90 63.5l65 -63q-48 -54 -116.5 -82t-150.5 -28z" />
    <glyph glyph-name="D" unicode="D" horiz-adv-x="826" 
d="M105 0v700h295q112 0 197.5 -44t133 -123t47.5 -183t-47.5 -183t-133 -123t-197.5 -44h-295zM205 87h189q87 0 150.5 33t98.5 92.5t35 137.5q0 79 -35 138t-98.5 92t-150.5 33h-189v-526z" />
    <glyph glyph-name="E" unicode="E" horiz-adv-x="670" 
d="M196 398h360v-85h-360v85zM205 87h408v-87h-508v700h494v-87h-394v-526z" />
    <glyph glyph-name="F" unicode="F" horiz-adv-x="635" 
d="M195 369h361v-86h-361v86zM205 0h-100v700h494v-87h-394v-613z" />
    <glyph glyph-name="G" unicode="G" horiz-adv-x="772" 
d="M421 -8q-81 0 -149 26.5t-118 75t-78 113.5t-28 143t28 143t78.5 113.5t118.5 75t150 26.5q83 0 152 -27t117 -81l-62 -62q-43 42 -93.5 61.5t-109.5 19.5q-60 0 -111.5 -20t-89 -56t-58 -85.5t-20.5 -107.5q0 -57 20.5 -106.5t58 -86t88.5 -56.5t111 -20
q56 0 107.5 17.5t95.5 58.5l57 -76q-52 -44 -121.5 -66.5t-143.5 -22.5zM590 94v260h96v-273z" />
    <glyph glyph-name="H" unicode="H" horiz-adv-x="812" 
d="M607 700h100v-700h-100v700zM205 0h-100v700h100v-700zM616 312h-421v87h421v-87z" />
    <glyph glyph-name="I" unicode="I" horiz-adv-x="310" 
d="M105 0v700h100v-700h-100z" />
    <glyph glyph-name="J" unicode="J" horiz-adv-x="513" 
d="M195 -8q-62 0 -116 26t-88 75l58 68q29 -40 65.5 -61.5t80.5 -21.5q120 0 120 142v393h-253v87h352v-475q0 -117 -55.5 -175t-163.5 -58z" />
    <glyph glyph-name="K" unicode="K" horiz-adv-x="719" 
d="M193 169l-5 122l397 409h114l-307 -324l-56 -62zM105 0v700h100v-700h-100zM601 0l-287 334l67 74l337 -408h-117z" />
    <glyph glyph-name="L" unicode="L" horiz-adv-x="594" 
d="M105 0v700h100v-613h379v-87h-479z" />
    <glyph glyph-name="M" unicode="M" horiz-adv-x="955" 
d="M105 0v700h82l314 -529h-44l310 529h82l1 -700h-96l-1 549h23l-276 -464h-46l-278 464h25v-549h-96z" />
    <glyph glyph-name="N" unicode="N" horiz-adv-x="812" 
d="M105 0v700h82l463 -575h-43v575h100v-700h-82l-463 575h43v-575h-100z" />
    <glyph glyph-name="O" unicode="O" horiz-adv-x="840" 
d="M421 -8q-80 0 -148.5 27t-118.5 75.5t-78 113.5t-28 142t28 142t78 113.5t118 75.5t149 27q80 0 147.5 -26.5t118 -75t78 -113.5t27.5 -143t-27.5 -143t-78 -113.5t-118 -75t-147.5 -26.5zM421 81q58 0 107.5 20t86 56.5t57 85.5t20.5 107t-20.5 107t-57 85.5t-86 56.5
t-107.5 20q-59 0 -108.5 -20t-86.5 -56.5t-57.5 -85.5t-20.5 -107t20.5 -107t57.5 -85.5t86.5 -56.5t108.5 -20z" />
    <glyph glyph-name="P" unicode="P" horiz-adv-x="722" 
d="M105 0v700h273q92 0 157 -29t100 -84t35 -131t-35 -130.5t-100 -84t-157 -29.5h-218l45 47v-259h-100zM205 249l-45 50h215q96 0 145.5 41t49.5 116t-49.5 116t-145.5 41h-215l45 50v-414z" />
    <glyph glyph-name="Q" unicode="Q" horiz-adv-x="840" 
d="M421 -8q-80 0 -148.5 27t-118.5 75.5t-78 113.5t-28 142t28 142t78 113.5t118 75.5t149 27q80 0 147.5 -26.5t118 -75t78 -113.5t27.5 -143t-27.5 -143t-78 -113.5t-118 -75t-147.5 -26.5zM650 -146q-35 0 -67 8.5t-64 27t-66 48t-74 72.5l107 28q30 -37 57.5 -60.5
t54.5 -34t53 -10.5q75 0 128 60l47 -57q-68 -82 -176 -82zM421 81q58 0 107.5 20t86 57t57 86t20.5 106q0 58 -20.5 107t-57 85.5t-86 56.5t-107.5 20q-59 0 -108.5 -20t-86.5 -56.5t-57.5 -85.5t-20.5 -107q0 -57 20.5 -106t57.5 -86t86.5 -57t108.5 -20z" />
    <glyph glyph-name="R" unicode="R" horiz-adv-x="727" 
d="M105 0v700h273q92 0 157 -29t100 -84t35 -131t-35 -130.5t-100 -83.5t-157 -29h-218l45 46v-259h-100zM573 0l-178 254h107l180 -254h-109zM205 249l-45 49h215q96 0 145.5 41.5t49.5 116.5t-49.5 116t-145.5 41h-215l45 50v-414z" />
    <glyph glyph-name="S" unicode="S" horiz-adv-x="621" 
d="M309 -8q-80 0 -153 24.5t-115 63.5l37 78q40 -35 102 -58t129 -23q61 0 99 14t56 38.5t18 55.5q0 36 -23.5 58t-61 35.5t-82.5 23.5t-90.5 23.5t-83 34.5t-60.5 56.5t-23 91.5q0 54 28.5 99.5t88 73t151.5 27.5q61 0 121 -16t104 -46l-33 -80q-45 30 -95 43.5t-97 13.5
q-59 0 -97 -15t-55.5 -40t-17.5 -56q0 -37 23.5 -59t61 -35t82.5 -23.5t90.5 -23.5t83 -34t60.5 -56t23 -90q0 -53 -29 -98.5t-89.5 -73t-152.5 -27.5z" />
    <glyph glyph-name="T" unicode="T" horiz-adv-x="587" 
d="M244 0v613h-240v87h579v-87h-240v-613h-99z" />
    <glyph glyph-name="U" unicode="U" horiz-adv-x="791" 
d="M395 -8q-138 0 -217 79t-79 231v398h100v-394q0 -117 51.5 -171t145.5 -54q95 0 146.5 54t51.5 171v394h97v-398q0 -152 -78.5 -231t-217.5 -79z" />
    <glyph glyph-name="V" unicode="V" horiz-adv-x="712" 
d="M307 0l-308 700h108l283 -646h-62l285 646h100l-307 -700h-99z" />
    <glyph glyph-name="W" unicode="W" horiz-adv-x="1126" 
d="M266 0l-234 700h103l215 -646h-52l223 646h92l218 -646h-50l218 646h95l-234 -700h-105l-204 599h27l-205 -599h-107z" />
    <glyph glyph-name="X" unicode="X" horiz-adv-x="673" 
d="M13 0l291 397v-77l-275 380h114l218 -299l-45 -1l217 300h109l-273 -374v72l291 -398h-115l-232 319h44l-229 -319h-115z" />
    <glyph glyph-name="Y" unicode="Y" horiz-adv-x="647" 
d="M274 0v268l23 -62l-301 494h107l253 -417h-58l254 417h99l-300 -494l22 62v-268h-99z" />
    <glyph glyph-name="Z" unicode="Z" horiz-adv-x="657" 
d="M43 0v68l471 584l11 -39h-475v87h565v-68l-469 -584l-12 39h494v-87h-585z" />
    <glyph glyph-name="bracketleft" unicode="[" horiz-adv-x="333" 
d="M105 -194v936h209v-79h-113v-778h113v-79h-209z" />
    <glyph glyph-name="backslash" unicode="\" horiz-adv-x="352" 
d="M379 -100h-87l-330 942h87z" />
    <glyph glyph-name="bracketright" unicode="]" horiz-adv-x="333" 
d="M228 -194h-209v79h113v778h-113v79h209v-936z" />
    <glyph glyph-name="asciicircum" unicode="^" horiz-adv-x="583" 
d="M75 142l177 416h80l176 -416h-77l-160 386h41l-160 -386h-77z" />
    <glyph glyph-name="underscore" unicode="_" horiz-adv-x="500" 
d="M0 -62v62h500v-62h-500z" />
    <glyph glyph-name="grave" unicode="`" horiz-adv-x="600" 
d="M285 607l-168 130h122l136 -130h-90z" />
    <glyph glyph-name="a" unicode="a" horiz-adv-x="598" 
d="M420 0v112l-5 21v191q0 61 -35.5 94.5t-106.5 33.5q-47 0 -92 -15.5t-76 -41.5l-40 72q41 33 98.5 50.5t120.5 17.5q109 0 168 -53t59 -162v-320h-91zM246 -6q-59 0 -103.5 20t-68.5 55.5t-24 80.5q0 43 20.5 78t67 56t125.5 21h168v-69h-164q-72 0 -97 -24t-25 -58
q0 -39 31 -62.5t86 -23.5q54 0 94.5 24t58.5 70l19 -66q-19 -47 -67 -74.5t-121 -27.5z" />
    <glyph glyph-name="b" unicode="b" horiz-adv-x="682" 
d="M372 -6q-68 0 -122.5 30.5t-86 90.5t-31.5 150t32.5 150t87 90t120.5 30q78 0 138 -34t95 -94.5t35 -141.5t-35 -142t-95 -95t-138 -34zM91 0v742h96v-353l-10 -123l6 -123v-143h-92zM364 78q51 0 91.5 23t64 65.5t23.5 98.5q0 57 -23.5 98.5t-64 64.5t-91.5 23
q-50 0 -90.5 -23t-64 -64.5t-23.5 -98.5q0 -56 23.5 -98.5t64 -65.5t90.5 -23z" />
    <glyph glyph-name="c" unicode="c" horiz-adv-x="571" 
d="M322 -6q-81 0 -144.5 35t-99.5 96t-36 140t36 140t99.5 95.5t144.5 34.5q72 0 128.5 -28.5t87.5 -84.5l-73 -47q-26 39 -63.5 57.5t-80.5 18.5q-52 0 -93 -23t-65 -64.5t-24 -98.5t24 -99t65 -65t93 -23q43 0 80.5 18.5t63.5 57.5l73 -46q-31 -55 -87.5 -84.5
t-128.5 -29.5z" />
    <glyph glyph-name="d" unicode="d" horiz-adv-x="682" 
d="M310 -6q-77 0 -137.5 34t-95.5 95t-35 142t35 141.5t95.5 94.5t137.5 34q67 0 121 -30t86.5 -90t32.5 -150t-31.5 -150t-85.5 -90.5t-123 -30.5zM318 78q50 0 90.5 23t64 65.5t23.5 98.5q0 57 -23.5 98.5t-64 64.5t-90.5 23q-51 0 -91 -23t-64 -64.5t-24 -98.5
q0 -56 24 -98.5t64 -65.5t91 -23zM499 0v143l6 123l-10 123v353h96v-742h-92z" />
    <glyph glyph-name="e" unicode="e" horiz-adv-x="612" 
d="M327 -6q-85 0 -149.5 35t-100 96t-35.5 140t34.5 140t95 95.5t136.5 34.5q77 0 136 -34t92.5 -95.5t33.5 -143.5q0 -6 -0.5 -14t-1.5 -15h-451v69h401l-39 -24q1 51 -21 91t-60.5 62.5t-89.5 22.5q-50 0 -89 -22.5t-61 -63t-22 -92.5v-16q0 -53 24.5 -94.5t68.5 -64.5
t101 -23q47 0 85.5 16t67.5 48l53 -62q-36 -42 -89.5 -64t-119.5 -22z" />
    <glyph glyph-name="f" unicode="f" horiz-adv-x="353" 
d="M105 0v577q0 78 45.5 124.5t129.5 46.5q31 0 59.5 -7.5t48.5 -23.5l-29 -73q-15 12 -34 18.5t-40 6.5q-42 0 -64 -23.5t-22 -69.5v-71l2 -44v-461h-96zM15 451v79h338v-79h-338z" />
    <glyph glyph-name="g" unicode="g" horiz-adv-x="690" 
d="M323 -200q-73 0 -141.5 20.5t-111.5 58.5l46 74q37 -32 91 -50.5t113 -18.5q94 0 138 44t44 134v112l10 105l-5 106v145h91v-458q0 -140 -70 -206t-205 -66zM311 22q-77 0 -137.5 32.5t-96 90.5t-35.5 134q0 77 35.5 134.5t96 89.5t137.5 32q68 0 124 -27.5t89.5 -84.5
t33.5 -144q0 -86 -33.5 -143t-89.5 -85.5t-124 -28.5zM322 106q53 0 94 22t64.5 61t23.5 90t-23.5 90t-64.5 60.5t-94 21.5t-94.5 -21.5t-65 -60.5t-23.5 -90t23.5 -90t65 -61t94.5 -22z" />
    <glyph glyph-name="h" unicode="h" horiz-adv-x="681" 
d="M374 535q65 0 114.5 -25t77.5 -76t28 -129v-305h-96v294q0 77 -37.5 116t-105.5 39q-51 0 -89 -20t-58.5 -59t-20.5 -97v-273h-96v742h96v-355l-19 38q26 52 80 81t126 29z" />
    <glyph glyph-name="i" unicode="i" horiz-adv-x="279" 
d="M91 0v530h96v-530h-96zM139 632q-28 0 -46.5 18t-18.5 44q0 27 18.5 45t46.5 18t46.5 -17.5t18.5 -43.5q0 -27 -18 -45.5t-47 -18.5z" />
    <glyph glyph-name="j" unicode="j" horiz-adv-x="284" 
d="M23 -200q-33 0 -63.5 8t-51.5 24l31 74q30 -25 78 -25q38 0 58.5 23.5t20.5 69.5v556h96v-554q0 -81 -43.5 -128.5t-125.5 -47.5zM144 632q-28 0 -46.5 18t-18.5 44q0 27 18.5 45t46.5 18t46.5 -17.5t18.5 -43.5q0 -27 -18 -45.5t-47 -18.5z" />
    <glyph glyph-name="k" unicode="k" horiz-adv-x="616" 
d="M169 128l2 123l305 279h116l-234 -230l-52 -44zM91 0v742h96v-742h-96zM496 0l-208 258l62 77l264 -335h-118z" />
    <glyph glyph-name="l" unicode="l" horiz-adv-x="279" 
d="M91 0v742h96v-742h-96z" />
    <glyph glyph-name="m" unicode="m" horiz-adv-x="1057" 
d="M754 535q64 0 113 -25t76.5 -76t27.5 -129v-305h-96v294q0 77 -36 116t-101 39q-48 0 -84 -20t-55.5 -59t-19.5 -97v-273h-96v294q0 77 -35.5 116t-101.5 39q-47 0 -83 -20t-56 -59t-20 -97v-273h-96v530h92v-141l-15 36q25 52 77 81t121 29q76 0 131 -37.5t72 -113.5
l-39 16q24 61 84 98t140 37z" />
    <glyph glyph-name="n" unicode="n" horiz-adv-x="681" 
d="M374 535q65 0 114.5 -25t77.5 -76t28 -129v-305h-96v294q0 77 -37.5 116t-105.5 39q-51 0 -89 -20t-58.5 -59t-20.5 -97v-273h-96v530h92v-143l-15 38q26 52 80 81t126 29z" />
    <glyph glyph-name="o" unicode="o" horiz-adv-x="635" 
d="M318 -6q-80 0 -142 35t-98 96.5t-36 139.5q0 79 36 140t98 95.5t142 34.5q79 0 141.5 -34.5t98 -95t35.5 -140.5q0 -79 -35.5 -140t-98 -96t-141.5 -35zM318 78q51 0 91.5 23t63.5 65.5t23 98.5q0 57 -23 98.5t-63.5 64.5t-91.5 23t-91 -23t-64 -64.5t-24 -98.5
q0 -56 24 -98.5t64 -65.5t91 -23z" />
    <glyph glyph-name="p" unicode="p" horiz-adv-x="682" 
d="M372 -6q-66 0 -120.5 30.5t-87 90.5t-32.5 150t31.5 150t86 90t122.5 30q78 0 138 -34t95 -94.5t35 -141.5t-35 -142t-95 -95t-138 -34zM91 -194v724h92v-143l-6 -123l10 -123v-335h-96zM364 78q51 0 91.5 23t64 65.5t23.5 98.5q0 57 -23.5 98.5t-64 64.5t-91.5 23
q-50 0 -90.5 -23t-64 -64.5t-23.5 -98.5q0 -56 23.5 -98.5t64 -65.5t90.5 -23z" />
    <glyph glyph-name="q" unicode="q" horiz-adv-x="682" 
d="M310 -6q-77 0 -137.5 34t-95.5 95t-35 142t35 141.5t95.5 94.5t137.5 34q69 0 123 -30t85.5 -90t31.5 -150t-32.5 -150t-86.5 -90.5t-121 -30.5zM318 78q50 0 90.5 23t64 65.5t23.5 98.5q0 57 -23.5 98.5t-64 64.5t-90.5 23q-51 0 -91 -23t-64 -64.5t-24 -98.5
q0 -56 24 -98.5t64 -65.5t91 -23zM495 -194v335l10 123l-6 123v143h92v-724h-96z" />
    <glyph glyph-name="r" unicode="r" horiz-adv-x="410" 
d="M91 0v530h92v-144l-9 36q22 55 74 84t128 29v-93q-6 1 -11.5 1h-10.5q-77 0 -122 -46t-45 -133v-264h-96z" />
    <glyph glyph-name="s" unicode="s" horiz-adv-x="501" 
d="M243 -6q-66 0 -125.5 18t-93.5 44l40 76q34 -23 84 -39t102 -16q67 0 96.5 19t29.5 53q0 25 -18 39t-47.5 21t-65.5 12.5t-72 14t-66 24t-48 43t-18 73.5q0 48 27 84t76.5 55.5t117.5 19.5q52 0 105.5 -12.5t87.5 -35.5l-41 -76q-36 24 -75 33t-78 9q-63 0 -94 -20.5
t-31 -52.5q0 -27 18.5 -41.5t48 -22.5t65.5 -13.5t72 -14t65.5 -23.5t48 -42t18.5 -72q0 -48 -28 -83t-79 -54.5t-122 -19.5z" />
    <glyph glyph-name="t" unicode="t" horiz-adv-x="414" 
d="M273 -6q-80 0 -124 43t-44 123v486h96v-482q0 -43 21.5 -66t61.5 -23q45 0 75 25l30 -69q-22 -19 -52.5 -28t-63.5 -9zM15 451v79h338v-79h-338z" />
    <glyph glyph-name="u" unicode="u" horiz-adv-x="677" 
d="M314 -6q-68 0 -119.5 25t-80 76.5t-28.5 129.5v305h96v-294q0 -78 37.5 -117t105.5 -39q50 0 87 20.5t57 60t20 95.5v274h96v-530h-91v143l15 -38q-26 -53 -78 -82t-117 -29z" />
    <glyph glyph-name="v" unicode="v" horiz-adv-x="559" 
d="M230 0l-232 530h100l206 -480h-48l210 480h94l-232 -530h-98z" />
    <glyph glyph-name="w" unicode="w" horiz-adv-x="899" 
d="M203 0l-197 530h91l175 -480h-43l182 480h81l178 -480h-42l179 480h86l-198 -530h-92l-167 438h28l-169 -438h-92z" />
    <glyph glyph-name="x" unicode="x" horiz-adv-x="552" 
d="M14 0l228 296l-1 -49l-217 283h107l166 -218h-41l166 218h105l-220 -285l1 51l230 -296h-109l-175 232l39 -6l-172 -226h-107z" />
    <glyph glyph-name="y" unicode="y" horiz-adv-x="559" 
d="M114 -200q-38 0 -74 12.5t-62 36.5l41 72q20 -19 44 -29t51 -10q35 0 58 18t43 64l33 73l10 12l208 481h94l-257 -583q-23 -56 -51.5 -88t-62.5 -45.5t-75 -13.5zM240 -17l-242 547h100l206 -472z" />
    <glyph glyph-name="z" unicode="z" horiz-adv-x="521" 
d="M40 0v62l340 422l19 -33h-353v79h430v-63l-340 -421l-22 33h370v-79h-444z" />
    <glyph glyph-name="braceleft" unicode="{" horiz-adv-x="351" 
d="M288 -194q-75 0 -113 37.5t-38 110.5v230q0 26 -12 38t-33 12h-35v80h35q21 0 33 12t12 38v230q0 74 38 111t113 37h44v-79h-25q-37 0 -55.5 -20t-18.5 -58v-219q0 -35 -9 -54.5t-26.5 -29t-45.5 -14.5v12q28 -4 45.5 -14t26.5 -29.5t9 -54.5v-219q0 -38 18.5 -58
t55.5 -20h25v-79h-44z" />
    <glyph glyph-name="bar" unicode="|" horiz-adv-x="299" 
d="M105 -194v936h89v-936h-89z" />
    <glyph glyph-name="braceright" unicode="}" horiz-adv-x="351" 
d="M63 -194h-44v79h24q39 0 57.5 20t18.5 58v219q0 35 8.5 54.5t26.5 29.5t45 14v-12q-27 5 -45 14.5t-26.5 29t-8.5 54.5v219q0 38 -18.5 58t-57.5 20h-24v79h44q75 0 113.5 -37t38.5 -111v-230q0 -26 12 -38t32 -12h34v-80h-34q-20 0 -32 -12t-12 -38v-230
q0 -73 -38.5 -110.5t-113.5 -37.5z" />
    <glyph glyph-name="asciitilde" unicode="~" horiz-adv-x="582" 
d="M392 265q-36 0 -63 15t-49.5 34t-42.5 33.5t-44 14.5q-32 0 -51 -24t-21 -66h-63q2 84 39 124t93 40q36 0 63 -15t49.5 -34t42.5 -33.5t44 -14.5q33 0 52 24.5t20 66.5h63q-2 -84 -38.5 -124.5t-93.5 -40.5z" />
    <glyph glyph-name="uni00A0" unicode="&#xa0;" horiz-adv-x="269" 
 />
    <glyph glyph-name="exclamdown" unicode="&#xa1;" horiz-adv-x="268" 
d="M172 309l19 -463h-113l18 463h76zM135 535q28 0 46 -19t18 -46q0 -26 -18 -44.5t-46 -18.5t-47 18.5t-19 44.5q0 27 19 46t47 19z" />
    <glyph glyph-name="cent" unicode="&#xa2;" horiz-adv-x="571" 
d="M282 -120v770h64v-770h-64zM322 -6q-81 0 -144.5 35t-99.5 96t-36 140t36 140t99.5 95.5t144.5 34.5q72 0 128.5 -28.5t87.5 -84.5l-73 -47q-26 39 -63.5 57.5t-80.5 18.5q-52 0 -93 -23t-65 -64.5t-24 -98.5t24 -99t65 -65t93 -23q43 0 80.5 18.5t63.5 57.5l73 -46
q-31 -55 -87.5 -84.5t-128.5 -29.5z" />
    <glyph glyph-name="sterling" unicode="&#xa3;" horiz-adv-x="646" 
d="M139 14v434q0 79 34.5 137.5t100.5 90.5t160 32q61 0 109 -12t88 -38l-33 -83q-35 25 -79 34.5t-94 9.5q-93 0 -140 -44t-47 -126v-435h-99zM30 0v87h586v-87h-586zM30 317v66h474v-66h-474z" />
    <glyph glyph-name="currency" unicode="&#xa4;" horiz-adv-x="700" 
d="M146 463l-115 115l55 59l116 -115zM86 -2l-55 59l115 115l56 -59zM613 -2l-116 115l56 59l116 -115zM553 463l-56 59l116 115l56 -59zM350 55q-55 0 -104.5 20.5t-86.5 57t-58.5 84t-21.5 102.5t21.5 102.5t58.5 84.5t86.5 57.5t104.5 20.5q56 0 105.5 -20.5t87 -57.5
t58.5 -84.5t21 -102.5t-21 -102.5t-58.5 -84t-87 -57t-105.5 -20.5zM350 134q54 0 97.5 25.5t70.5 67t27 92.5t-27 93t-70.5 67.5t-97.5 25.5q-52 0 -96 -25.5t-70 -67.5t-26 -93t26 -92.5t70 -67t96 -25.5z" />
    <glyph glyph-name="yen" unicode="&#xa5;" horiz-adv-x="707" 
d="M304 0v305l23 -67l-331 462h106l283 -396h-60l284 396h102l-330 -462l22 67v-305h-99zM93 117v57h521v-57h-521zM93 255v57h521v-57h-521z" />
    <glyph glyph-name="brokenbar" unicode="&#xa6;" horiz-adv-x="299" 
d="M105 392v350h89v-350h-89zM105 -194v350h89v-350h-89z" />
    <glyph glyph-name="section" unicode="&#xa7;" horiz-adv-x="500" 
d="M353 147l-65 49q40 7 66.5 31.5t26.5 62.5q0 29 -17.5 47t-46 28t-63 18.5t-69 18.5t-63.5 26t-46.5 43.5t-17.5 71.5q0 49 27.5 85.5t79 57t122.5 20.5q31 0 66 -6t66.5 -17t52.5 -27l-31 -73q-35 24 -76 35t-85 11q-67 0 -101.5 -21.5t-34.5 -61.5q0 -27 17.5 -44
t46 -26.5t63 -17.5t69 -18.5t63 -28t45.5 -47t17 -73.5q0 -52 -31.5 -90t-80.5 -54zM232 -106q-38 0 -78 8.5t-73.5 23t-54.5 32.5l31 73q31 -25 79.5 -42.5t99.5 -17.5q57 0 89.5 21.5t32.5 61.5q0 29 -17.5 45.5t-46 26.5t-63 18t-69 18t-63 27t-46 45t-17.5 72
q0 56 31.5 93t80.5 54l63 -50q-39 -7 -65 -30.5t-26 -61.5q0 -30 17.5 -47.5t46.5 -28t63.5 -18.5t69 -18t63.5 -26.5t46.5 -44.5t17.5 -72q0 -48 -26.5 -84.5t-74 -57t-111.5 -20.5z" />
    <glyph glyph-name="dieresis" unicode="&#xa8;" horiz-adv-x="600" 
d="M393 624q-21 0 -36 14.5t-15 36.5q0 23 15 37.5t36 14.5t36 -14.5t15 -37.5q0 -22 -15 -36.5t-36 -14.5zM207 624q-21 0 -36 14.5t-15 36.5q0 23 15 37.5t36 14.5t36 -14.5t15 -37.5q0 -22 -15 -36.5t-36 -14.5z" />
    <glyph glyph-name="copyright" unicode="&#xa9;" horiz-adv-x="802" 
d="M400 -3q-75 0 -139 27t-112 75.5t-74.5 112.5t-26.5 138t27 138t75 112.5t112.5 75.5t139.5 27t139.5 -26.5t112 -74.5t74 -111.5t26.5 -138.5t-27 -139.5t-75.5 -113t-112.5 -75.5t-139 -27zM400 42q65 0 121 24t98 66t65 98.5t23 121.5t-23 121t-64 97t-96.5 64.5
t-121.5 23.5t-122.5 -23.5t-97.5 -66t-64 -98t-23 -120.5t23 -121t64 -98t97 -65.5t121 -23.5zM411 144q-61 0 -109 26t-75 72.5t-27 107.5t27 107.5t75 72.5t109 26q53 0 95.5 -21.5t66.5 -59.5l-57 -41q-19 28 -46.5 41t-59.5 13q-39 0 -68.5 -17.5t-47.5 -48t-18 -72.5
t18 -72.5t47.5 -48t68.5 -17.5q32 0 59.5 13t46.5 41l57 -40q-24 -38 -66.5 -60t-95.5 -22z" />
    <glyph glyph-name="ordfeminine" unicode="&#xaa;" horiz-adv-x="404" 
d="M275 428v66l-5 12v113q0 39 -22 57t-65 18q-31 0 -60 -9.5t-50 -25.5l-26 45q26 20 65 31.5t78 11.5q72 0 110.5 -32t38.5 -98v-189h-64zM163 424q-62 0 -94 27t-32 67t31.5 66t104.5 26h108v-43h-99q-43 0 -61 -12.5t-18 -33.5q0 -24 19.5 -36.5t54.5 -12.5t58 13t35 36
l11 -43q-10 -22 -40.5 -38t-77.5 -16z" />
    <glyph glyph-name="guillemotleft" unicode="&#xab;" horiz-adv-x="504" 
d="M190 74l-144 191l144 192h88l-141 -192l141 -191h-88zM382 74l-144 191l144 192h88l-141 -192l141 -191h-88z" />
    <glyph glyph-name="logicalnot" unicode="&#xac;" horiz-adv-x="582" 
d="M515 390v-257h-85v178h-363v79h448z" />
    <glyph glyph-name="uni00AD" unicode="&#xad;" horiz-adv-x="383" 
d="M57 233v83h269v-83h-269z" />
    <glyph glyph-name="registered" unicode="&#xae;" horiz-adv-x="802" 
d="M400 -3q-75 0 -139 27t-112 75.5t-74.5 112.5t-26.5 138t27 138t75 112.5t112.5 75.5t139.5 27t139.5 -26.5t112 -74.5t74 -111.5t26.5 -138.5t-27 -139.5t-75.5 -113t-112.5 -75.5t-139 -27zM519 150l-100 154h69l100 -154h-69zM400 42q65 0 121 24t98 66t65 98.5
t23 121.5t-23 121t-64 97t-96.5 64.5t-121.5 23.5t-122.5 -23.5t-97.5 -66t-64 -98t-23 -120.5t23 -121t64 -98t97 -65.5t121 -23.5zM259 150v400h160q76 0 119 -37t43 -99q0 -64 -43 -100t-119 -36h-92v-128h-68zM326 334h88q48 0 74.5 21t26.5 59t-26.5 58.5t-74.5 20.5
h-88v-159z" />
    <glyph glyph-name="macron" unicode="&#xaf;" horiz-adv-x="600" 
d="M137 642v60h326v-60h-326z" />
    <glyph glyph-name="degree" unicode="&#xb0;" horiz-adv-x="419" 
d="M209 381q-46 0 -83.5 21.5t-59 58.5t-21.5 83q0 45 21.5 82t59 58.5t83.5 21.5t83.5 -21.5t59.5 -58.5t22 -82q0 -46 -22 -83t-59.5 -58.5t-83.5 -21.5zM210 435q30 0 54.5 14.5t38.5 39t14 54.5q0 32 -14 57t-38.5 39t-54.5 14q-31 0 -56 -14t-39 -38.5t-14 -57.5
q0 -31 14 -55.5t39 -38.5t56 -14z" />
    <glyph glyph-name="plusminus" unicode="&#xb1;" horiz-adv-x="582" 
d="M67 0v79h448v-79h-448zM249 185v427h84v-427h-84zM67 359v79h448v-79h-448z" />
    <glyph glyph-name="uni00B2" unicode="&#xb2;" horiz-adv-x="430" 
d="M46 327v45l185 162q36 33 48 52.5t12 37.5q0 26 -24 44.5t-76 18.5q-36 0 -65.5 -11.5t-48.5 -33.5l-49 38q26 32 68.5 49.5t99.5 17.5q81 0 123 -34t42 -84q0 -30 -14.5 -58t-62.5 -70l-162 -142l-19 26h277v-58h-334z" />
    <glyph glyph-name="uni00B3" unicode="&#xb3;" horiz-adv-x="430" 
d="M201 322q-54 0 -101.5 14t-72.5 37l28 53q24 -20 63 -32t83 -12q56 0 83 18.5t27 49.5t-26 49t-80 18h-47v47l137 147l12 -27h-267v58h321v-45l-137 -147l-32 21h25q81 0 122.5 -34t41.5 -87q0 -35 -20 -64t-60 -46.5t-100 -17.5z" />
    <glyph glyph-name="acute" unicode="&#xb4;" horiz-adv-x="600" 
d="M225 607l136 130h122l-168 -130h-90z" />
    <glyph glyph-name="uni00B5" unicode="&#xb5;" horiz-adv-x="682" 
d="M91 -194v724h96v-294q0 -78 37.5 -117t105.5 -39q50 0 87 20.5t57 60t20 95.5v274h96v-530h-91v144l16 -29q-16 -43 -45 -69.5t-65 -39t-73 -12.5q-57 0 -99.5 23.5t-64.5 67.5l19 37v-316h-96z" />
    <glyph glyph-name="paragraph" unicode="&#xb6;" horiz-adv-x="648" 
d="M227 -100v484q-61 0 -108 22.5t-73.5 62.5t-26.5 94q0 55 27.5 95.5t77.5 62t117 21.5h302v-842h-80v767h-156v-767h-80z" />
    <glyph glyph-name="periodcentered" unicode="&#xb7;" horiz-adv-x="267" 
d="M134 206q-28 0 -48 19.5t-20 49.5t20 49t48 19q29 0 47.5 -19t18.5 -49t-18.5 -49.5t-47.5 -19.5z" />
    <glyph glyph-name="cedilla" unicode="&#xb8;" horiz-adv-x="600" 
d="M275 -224q-26 0 -48 5.5t-41 16.5l21 49q16 -9 32.5 -13t35.5 -4q29 0 42.5 10.5t13.5 29.5q0 18 -13.5 28.5t-43.5 10.5h-27l25 98h55l-15 -57q43 -4 65 -27t22 -56q0 -42 -34 -66.5t-90 -24.5z" />
    <glyph glyph-name="uni00B9" unicode="&#xb9;" horiz-adv-x="430" 
d="M268 339l-44 46h146v-58h-289v58h160l-44 -46v377l31 -32h-139v58h179v-403z" />
    <glyph glyph-name="ordmasculine" unicode="&#xba;" horiz-adv-x="418" 
d="M209 424q-51 0 -91 21t-63 58t-23 83q0 47 23 83.5t63 57t91 20.5q52 0 92 -20.5t62.5 -57t22.5 -83.5q0 -46 -22.5 -83t-62.5 -58t-92 -21zM209 482q49 0 79.5 29t30.5 75q0 47 -30.5 75.5t-79.5 28.5q-48 0 -79 -28.5t-31 -75.5q0 -45 31 -74.5t79 -29.5z" />
    <glyph glyph-name="guillemotright" unicode="&#xbb;" horiz-adv-x="504" 
d="M122 74h-88l141 191l-141 192h88l144 -192zM314 74h-88l141 191l-141 192h88l144 -192z" />
    <glyph glyph-name="onequarter" unicode="&#xbc;" horiz-adv-x="1034" 
d="M268 297l-44 46h146v-58h-289v58h160l-44 -46v377l31 -32h-139v58h179v-403zM240 0l478 700h76l-478 -700h-76zM626 99v47l201 269h78l-202 -269l-34 11h338v-58h-381zM857 0v99l6 58v83h63v-240h-69z" />
    <glyph glyph-name="onehalf" unicode="&#xbd;" horiz-adv-x="1034" 
d="M268 297l-44 46h146v-58h-289v58h160l-44 -46v377l31 -32h-139v58h179v-403zM240 0l478 700h76l-478 -700h-76zM650 0v45l185 162q36 33 48 52.5t12 37.5q0 26 -24 44.5t-76 18.5q-36 0 -65.5 -11.5t-48.5 -33.5l-49 38q26 32 68.5 49.5t99.5 17.5q81 0 123 -34t42 -84
q0 -30 -14.5 -58t-62.5 -70l-162 -142l-19 26h277v-58h-334z" />
    <glyph glyph-name="threequarters" unicode="&#xbe;" horiz-adv-x="1034" 
d="M201 280q-54 0 -101.5 14t-72.5 37l28 53q24 -20 63 -32t83 -12q56 0 83 18.5t27 49.5t-26 49t-80 18h-47v47l137 147l12 -27h-267v58h321v-45l-137 -147l-32 21h25q81 0 122.5 -34t41.5 -87q0 -35 -20 -64t-60 -46.5t-100 -17.5zM240 0l478 700h76l-478 -700h-76z
M626 99v47l201 269h78l-202 -269l-34 11h338v-58h-381zM857 0v99l6 58v83h63v-240h-69z" />
    <glyph glyph-name="questiondown" unicode="&#xbf;" horiz-adv-x="573" 
d="M306 -162q-72 0 -125.5 21.5t-82.5 60.5t-29 91q0 40 12.5 69.5t33 51.5t42.5 41t42.5 38t33 42.5t12.5 55.5h100q0 -38 -12.5 -66t-32.5 -50t-43 -41.5t-43 -38.5t-32.5 -41t-12.5 -50q0 -41 38 -70t105 -29q61 0 105.5 20.5t73.5 58.5l73 -52q-41 -53 -106 -82.5
t-152 -29.5zM295 407q-28 0 -46.5 18.5t-18.5 44.5q0 27 18.5 46t46.5 19q29 0 47 -19t18 -46q0 -26 -18 -44.5t-47 -18.5z" />
    <glyph glyph-name="Agrave" unicode="&#xc0;" horiz-adv-x="732" 
d="M-1 0l317 700h99l318 -700h-105l-283 644h40l-283 -644h-103zM134 175l27 80h394l29 -80h-450zM351 757l-168 130h122l136 -130h-90z" />
    <glyph glyph-name="Aacute" unicode="&#xc1;" horiz-adv-x="732" 
d="M-1 0l317 700h99l318 -700h-105l-283 644h40l-283 -644h-103zM134 175l27 80h394l29 -80h-450zM291 757l136 130h122l-168 -130h-90z" />
    <glyph glyph-name="Acircumflex" unicode="&#xc2;" horiz-adv-x="732" 
d="M-1 0l317 700h99l318 -700h-105l-283 644h40l-283 -644h-103zM134 175l27 80h394l29 -80h-450zM187 757l133 130h92l133 -130h-87l-132 110h80l-132 -110h-87z" />
    <glyph glyph-name="Atilde" unicode="&#xc3;" horiz-adv-x="732" 
d="M-1 0l317 700h99l318 -700h-105l-283 644h40l-283 -644h-103zM134 175l27 80h394l29 -80h-450zM436 760q-24 0 -42.5 10t-33.5 23.5t-29 23.5t-28 10q-22 0 -35.5 -16.5t-15.5 -45.5h-54q2 56 28 89t70 33q24 0 43 -10.5t34 -24t28.5 -23.5t27.5 -10q22 0 36 16t15 44h54
q-1 -53 -27.5 -86t-70.5 -33z" />
    <glyph glyph-name="Adieresis" unicode="&#xc4;" horiz-adv-x="732" 
d="M-1 0l317 700h99l318 -700h-105l-283 644h40l-283 -644h-103zM134 175l27 80h394l29 -80h-450zM459 774q-21 0 -36 14.5t-15 36.5q0 23 15 37.5t36 14.5t36 -14.5t15 -37.5q0 -22 -15 -36.5t-36 -14.5zM273 774q-21 0 -36 14.5t-15 36.5q0 23 15 37.5t36 14.5t36 -14.5
t15 -37.5q0 -22 -15 -36.5t-36 -14.5z" />
    <glyph glyph-name="Aring" unicode="&#xc5;" horiz-adv-x="732" 
d="M-1 0l317 700h99l318 -700h-105l-283 644h40l-283 -644h-103zM134 175l27 80h394l29 -80h-450zM365 764q-31 0 -56 15t-39.5 39t-14.5 54t14.5 55t39.5 40t56 15q32 0 57 -15t39.5 -40t14.5 -55t-14.5 -54t-39.5 -39t-57 -15zM365 806q29 0 47.5 19t18.5 47
q0 29 -18.5 48t-47.5 19q-28 0 -46.5 -18.5t-18.5 -48.5q0 -28 18 -47t47 -19z" />
    <glyph glyph-name="AE" unicode="&#xc6;" horiz-adv-x="1047" 
d="M-1 0l417 700h100v-87h-88l61 44l-387 -657h-103zM177 175l6 80h333v-80h-339zM574 398h359v-85h-360zM582 87h409v-87h-508v700h494v-87h-395v-526z" />
    <glyph glyph-name="Ccedilla" unicode="&#xc7;" horiz-adv-x="723" 
d="M418 -8q-80 0 -147.5 26.5t-117 75t-77.5 113.5t-28 143t28 143t78 113.5t117.5 75t147.5 26.5q81 0 149.5 -27.5t116.5 -81.5l-65 -63q-40 42 -90 62.5t-107 20.5q-59 0 -109.5 -20t-87.5 -56t-57.5 -85.5t-20.5 -107.5t20.5 -107.5t57.5 -85.5t87.5 -56t109.5 -20
q57 0 107 20.5t90 63.5l65 -63q-48 -54 -116.5 -82t-150.5 -28zM377 -224q-26 0 -48 5.5t-41 16.5l21 49q16 -9 32.5 -13t35.5 -4q29 0 42.5 10.5t13.5 29.5q0 18 -13.5 28.5t-43.5 10.5h-27l25 98h55l-15 -57q43 -4 65 -27t22 -56q0 -42 -34 -66.5t-90 -24.5z" />
    <glyph glyph-name="Egrave" unicode="&#xc8;" horiz-adv-x="670" 
d="M196 398h360v-85h-360v85zM205 87h408v-87h-508v700h494v-87h-394v-526zM338 757l-168 130h122l136 -130h-90z" />
    <glyph glyph-name="Eacute" unicode="&#xc9;" horiz-adv-x="670" 
d="M196 398h360v-85h-360v85zM205 87h408v-87h-508v700h494v-87h-394v-526zM278 757l136 130h122l-168 -130h-90z" />
    <glyph glyph-name="Ecircumflex" unicode="&#xca;" horiz-adv-x="670" 
d="M196 398h360v-85h-360v85zM205 87h408v-87h-508v700h494v-87h-394v-526zM174 757l133 130h92l133 -130h-87l-132 110h80l-132 -110h-87z" />
    <glyph glyph-name="Edieresis" unicode="&#xcb;" horiz-adv-x="670" 
d="M196 398h360v-85h-360v85zM205 87h408v-87h-508v700h494v-87h-394v-526zM446 774q-21 0 -36 14.5t-15 36.5q0 23 15 37.5t36 14.5t36 -14.5t15 -37.5q0 -22 -15 -36.5t-36 -14.5zM260 774q-21 0 -36 14.5t-15 36.5q0 23 15 37.5t36 14.5t36 -14.5t15 -37.5
q0 -22 -15 -36.5t-36 -14.5z" />
    <glyph glyph-name="Igrave" unicode="&#xcc;" horiz-adv-x="310" 
d="M105 0v700h100v-700h-100zM140 757l-168 130h122l136 -130h-90z" />
    <glyph glyph-name="Iacute" unicode="&#xcd;" horiz-adv-x="310" 
d="M105 0v700h100v-700h-100zM80 757l136 130h122l-168 -130h-90z" />
    <glyph glyph-name="Icircumflex" unicode="&#xce;" horiz-adv-x="310" 
d="M105 0v700h100v-700h-100zM-24 757l133 130h92l133 -130h-87l-132 110h80l-132 -110h-87z" />
    <glyph glyph-name="Idieresis" unicode="&#xcf;" horiz-adv-x="310" 
d="M105 0v700h100v-700h-100zM248 774q-21 0 -36 14.5t-15 36.5q0 23 15 37.5t36 14.5t36 -14.5t15 -37.5q0 -22 -15 -36.5t-36 -14.5zM62 774q-21 0 -36 14.5t-15 36.5q0 23 15 37.5t36 14.5t36 -14.5t15 -37.5q0 -22 -15 -36.5t-36 -14.5z" />
    <glyph glyph-name="Eth" unicode="&#xd0;" horiz-adv-x="834" 
d="M113 0v700h295q112 0 197.5 -44t133 -123t47.5 -183t-47.5 -183t-133 -123t-197.5 -44h-295zM213 87h189q87 0 150.5 33t98.5 92.5t35 137.5q0 79 -35 138t-98.5 92t-150.5 33h-189v-526zM10 317v79h400v-79h-400z" />
    <glyph glyph-name="Ntilde" unicode="&#xd1;" horiz-adv-x="812" 
d="M105 0v700h82l463 -575h-43v575h100v-700h-82l-463 575h43v-575h-100zM475 760q-24 0 -42.5 10t-33.5 23.5t-29 23.5t-28 10q-22 0 -35.5 -16.5t-15.5 -45.5h-54q2 56 28 89t70 33q24 0 43 -10.5t34 -24t28.5 -23.5t27.5 -10q22 0 36 16t15 44h54q-1 -53 -27.5 -86
t-70.5 -33z" />
    <glyph glyph-name="Ograve" unicode="&#xd2;" horiz-adv-x="840" 
d="M421 -8q-80 0 -148.5 27t-118.5 75.5t-78 113.5t-28 142t28 142t78 113.5t118 75.5t149 27q80 0 147.5 -26.5t118 -75t78 -113.5t27.5 -143t-27.5 -143t-78 -113.5t-118 -75t-147.5 -26.5zM421 81q58 0 107.5 20t86 56.5t57 85.5t20.5 107t-20.5 107t-57 85.5t-86 56.5
t-107.5 20q-59 0 -108.5 -20t-86.5 -56.5t-57.5 -85.5t-20.5 -107t20.5 -107t57.5 -85.5t86.5 -56.5t108.5 -20zM406 757l-168 130h122l136 -130h-90z" />
    <glyph glyph-name="Oacute" unicode="&#xd3;" horiz-adv-x="840" 
d="M421 -8q-80 0 -148.5 27t-118.5 75.5t-78 113.5t-28 142t28 142t78 113.5t118 75.5t149 27q80 0 147.5 -26.5t118 -75t78 -113.5t27.5 -143t-27.5 -143t-78 -113.5t-118 -75t-147.5 -26.5zM421 81q58 0 107.5 20t86 56.5t57 85.5t20.5 107t-20.5 107t-57 85.5t-86 56.5
t-107.5 20q-59 0 -108.5 -20t-86.5 -56.5t-57.5 -85.5t-20.5 -107t20.5 -107t57.5 -85.5t86.5 -56.5t108.5 -20zM346 757l136 130h122l-168 -130h-90z" />
    <glyph glyph-name="Ocircumflex" unicode="&#xd4;" horiz-adv-x="840" 
d="M421 -8q-80 0 -148.5 27t-118.5 75.5t-78 113.5t-28 142t28 142t78 113.5t118 75.5t149 27q80 0 147.5 -26.5t118 -75t78 -113.5t27.5 -143t-27.5 -143t-78 -113.5t-118 -75t-147.5 -26.5zM421 81q58 0 107.5 20t86 56.5t57 85.5t20.5 107t-20.5 107t-57 85.5t-86 56.5
t-107.5 20q-59 0 -108.5 -20t-86.5 -56.5t-57.5 -85.5t-20.5 -107t20.5 -107t57.5 -85.5t86.5 -56.5t108.5 -20zM242 757l133 130h92l133 -130h-87l-132 110h80l-132 -110h-87z" />
    <glyph glyph-name="Otilde" unicode="&#xd5;" horiz-adv-x="840" 
d="M421 -8q-80 0 -148.5 27t-118.5 75.5t-78 113.5t-28 142t28 142t78 113.5t118 75.5t149 27q80 0 147.5 -26.5t118 -75t78 -113.5t27.5 -143t-27.5 -143t-78 -113.5t-118 -75t-147.5 -26.5zM421 81q58 0 107.5 20t86 56.5t57 85.5t20.5 107t-20.5 107t-57 85.5t-86 56.5
t-107.5 20q-59 0 -108.5 -20t-86.5 -56.5t-57.5 -85.5t-20.5 -107t20.5 -107t57.5 -85.5t86.5 -56.5t108.5 -20zM491 760q-24 0 -42.5 10t-33.5 23.5t-29 23.5t-28 10q-22 0 -35.5 -16.5t-15.5 -45.5h-54q2 56 28 89t70 33q24 0 43 -10.5t34 -24t28.5 -23.5t27.5 -10
q22 0 36 16t15 44h54q-1 -53 -27.5 -86t-70.5 -33z" />
    <glyph glyph-name="Odieresis" unicode="&#xd6;" horiz-adv-x="840" 
d="M421 -8q-80 0 -148.5 27t-118.5 75.5t-78 113.5t-28 142t28 142t78 113.5t118 75.5t149 27q80 0 147.5 -26.5t118 -75t78 -113.5t27.5 -143t-27.5 -143t-78 -113.5t-118 -75t-147.5 -26.5zM421 81q58 0 107.5 20t86 56.5t57 85.5t20.5 107t-20.5 107t-57 85.5t-86 56.5
t-107.5 20q-59 0 -108.5 -20t-86.5 -56.5t-57.5 -85.5t-20.5 -107t20.5 -107t57.5 -85.5t86.5 -56.5t108.5 -20zM514 774q-21 0 -36 14.5t-15 36.5q0 23 15 37.5t36 14.5t36 -14.5t15 -37.5q0 -22 -15 -36.5t-36 -14.5zM328 774q-21 0 -36 14.5t-15 36.5q0 23 15 37.5
t36 14.5t36 -14.5t15 -37.5q0 -22 -15 -36.5t-36 -14.5z" />
    <glyph glyph-name="multiply" unicode="&#xd7;" horiz-adv-x="582" 
d="M107 220l315 318l54 -58l-316 -318zM107 480l53 58l316 -318l-54 -58z" />
    <glyph glyph-name="Oslash" unicode="&#xd8;" horiz-adv-x="840" 
d="M421 -8q-80 0 -148.5 27t-118.5 75.5t-78 113.5t-28 142t28 142t78 113.5t118 75.5t149 27q80 0 147.5 -26.5t118 -75t78 -113.5t27.5 -143t-27.5 -143t-78 -113.5t-118 -75t-147.5 -26.5zM421 81q58 0 107.5 20t86 56.5t57 85.5t20.5 107t-20.5 107t-57 85.5t-86 56.5
t-107.5 20q-59 0 -108.5 -20t-86.5 -56.5t-57.5 -85.5t-20.5 -107t20.5 -107t57.5 -85.5t86.5 -56.5t108.5 -20zM81 -70l602 840h78l-602 -840h-78z" />
    <glyph glyph-name="Ugrave" unicode="&#xd9;" horiz-adv-x="791" 
d="M395 -8q-138 0 -217 79t-79 231v398h100v-394q0 -117 51.5 -171t145.5 -54q95 0 146.5 54t51.5 171v394h97v-398q0 -152 -78.5 -231t-217.5 -79zM381 757l-168 130h122l136 -130h-90z" />
    <glyph glyph-name="Uacute" unicode="&#xda;" horiz-adv-x="791" 
d="M395 -8q-138 0 -217 79t-79 231v398h100v-394q0 -117 51.5 -171t145.5 -54q95 0 146.5 54t51.5 171v394h97v-398q0 -152 -78.5 -231t-217.5 -79zM321 757l136 130h122l-168 -130h-90z" />
    <glyph glyph-name="Ucircumflex" unicode="&#xdb;" horiz-adv-x="791" 
d="M395 -8q-138 0 -217 79t-79 231v398h100v-394q0 -117 51.5 -171t145.5 -54q95 0 146.5 54t51.5 171v394h97v-398q0 -152 -78.5 -231t-217.5 -79zM217 757l133 130h92l133 -130h-87l-132 110h80l-132 -110h-87z" />
    <glyph glyph-name="Udieresis" unicode="&#xdc;" horiz-adv-x="791" 
d="M395 -8q-138 0 -217 79t-79 231v398h100v-394q0 -117 51.5 -171t145.5 -54q95 0 146.5 54t51.5 171v394h97v-398q0 -152 -78.5 -231t-217.5 -79zM489 774q-21 0 -36 14.5t-15 36.5q0 23 15 37.5t36 14.5t36 -14.5t15 -37.5q0 -22 -15 -36.5t-36 -14.5zM303 774
q-21 0 -36 14.5t-15 36.5q0 23 15 37.5t36 14.5t36 -14.5t15 -37.5q0 -22 -15 -36.5t-36 -14.5z" />
    <glyph glyph-name="Yacute" unicode="&#xdd;" horiz-adv-x="647" 
d="M274 0v268l23 -62l-301 494h107l253 -417h-58l254 417h99l-300 -494l22 62v-268h-99zM249 757l136 130h122l-168 -130h-90z" />
    <glyph glyph-name="Thorn" unicode="&#xde;" horiz-adv-x="722" 
d="M181 125v86h194q96 0 145.5 41.5t49.5 116.5q0 76 -49.5 117t-145.5 41h-194v87h197q92 0 157 -29.5t100 -84t35 -130.5t-35 -131.5t-100 -84.5t-157 -29h-197zM105 0v700h100v-700h-100z" />
    <glyph glyph-name="germandbls" unicode="&#xdf;" horiz-adv-x="676" 
d="M392 -6q-30 0 -60.5 4t-54.5 12l15 81q20 -7 42.5 -10t53.5 -3q45 0 78 14.5t52 43t19 68.5q0 61 -44.5 93.5t-115.5 32.5h-57v81q76 1 118.5 37.5t42.5 97.5q0 53 -36 85.5t-103 32.5q-72 0 -113.5 -41t-41.5 -121v-502h-96v494q0 84 33 140.5t89.5 85t128.5 28.5
t124 -26t80 -71t28 -101q0 -46 -17.5 -81t-45.5 -59.5t-61.5 -37.5t-66.5 -13l30 38q62 0 112 -23t79 -66.5t29 -105.5q0 -66 -31 -112.5t-85.5 -71t-124.5 -24.5z" />
    <glyph glyph-name="agrave" unicode="&#xe0;" horiz-adv-x="598" 
d="M420 0v112l-5 21v191q0 61 -35.5 94.5t-106.5 33.5q-47 0 -92 -15.5t-76 -41.5l-40 72q41 33 98.5 50.5t120.5 17.5q109 0 168 -53t59 -162v-320h-91zM246 -6q-59 0 -103.5 20t-68.5 55.5t-24 80.5q0 43 20.5 78t67 56t125.5 21h168v-69h-164q-72 0 -97 -24t-25 -58
q0 -39 31 -62.5t86 -23.5q54 0 94.5 24t58.5 70l19 -66q-19 -47 -67 -74.5t-121 -27.5zM276 607l-168 130h122l136 -130h-90z" />
    <glyph glyph-name="aacute" unicode="&#xe1;" horiz-adv-x="598" 
d="M420 0v112l-5 21v191q0 61 -35.5 94.5t-106.5 33.5q-47 0 -92 -15.5t-76 -41.5l-40 72q41 33 98.5 50.5t120.5 17.5q109 0 168 -53t59 -162v-320h-91zM246 -6q-59 0 -103.5 20t-68.5 55.5t-24 80.5q0 43 20.5 78t67 56t125.5 21h168v-69h-164q-72 0 -97 -24t-25 -58
q0 -39 31 -62.5t86 -23.5q54 0 94.5 24t58.5 70l19 -66q-19 -47 -67 -74.5t-121 -27.5zM216 607l136 130h122l-168 -130h-90z" />
    <glyph glyph-name="acircumflex" unicode="&#xe2;" horiz-adv-x="598" 
d="M420 0v112l-5 21v191q0 61 -35.5 94.5t-106.5 33.5q-47 0 -92 -15.5t-76 -41.5l-40 72q41 33 98.5 50.5t120.5 17.5q109 0 168 -53t59 -162v-320h-91zM246 -6q-59 0 -103.5 20t-68.5 55.5t-24 80.5q0 43 20.5 78t67 56t125.5 21h168v-69h-164q-72 0 -97 -24t-25 -58
q0 -39 31 -62.5t86 -23.5q54 0 94.5 24t58.5 70l19 -66q-19 -47 -67 -74.5t-121 -27.5zM112 607l133 130h92l133 -130h-87l-132 110h80l-132 -110h-87z" />
    <glyph glyph-name="atilde" unicode="&#xe3;" horiz-adv-x="598" 
d="M420 0v112l-5 21v191q0 61 -35.5 94.5t-106.5 33.5q-47 0 -92 -15.5t-76 -41.5l-40 72q41 33 98.5 50.5t120.5 17.5q109 0 168 -53t59 -162v-320h-91zM246 -6q-59 0 -103.5 20t-68.5 55.5t-24 80.5q0 43 20.5 78t67 56t125.5 21h168v-69h-164q-72 0 -97 -24t-25 -58
q0 -39 31 -62.5t86 -23.5q54 0 94.5 24t58.5 70l19 -66q-19 -47 -67 -74.5t-121 -27.5zM361 610q-24 0 -42.5 10t-33.5 23.5t-29 23.5t-28 10q-22 0 -35.5 -16.5t-15.5 -45.5h-54q2 56 28 89t70 33q24 0 43 -10.5t34 -24t28.5 -23.5t27.5 -10q22 0 36 16t15 44h54
q-1 -53 -27.5 -86t-70.5 -33z" />
    <glyph glyph-name="adieresis" unicode="&#xe4;" horiz-adv-x="598" 
d="M420 0v112l-5 21v191q0 61 -35.5 94.5t-106.5 33.5q-47 0 -92 -15.5t-76 -41.5l-40 72q41 33 98.5 50.5t120.5 17.5q109 0 168 -53t59 -162v-320h-91zM246 -6q-59 0 -103.5 20t-68.5 55.5t-24 80.5q0 43 20.5 78t67 56t125.5 21h168v-69h-164q-72 0 -97 -24t-25 -58
q0 -39 31 -62.5t86 -23.5q54 0 94.5 24t58.5 70l19 -66q-19 -47 -67 -74.5t-121 -27.5zM384 624q-21 0 -36 14.5t-15 36.5q0 23 15 37.5t36 14.5t36 -14.5t15 -37.5q0 -22 -15 -36.5t-36 -14.5zM198 624q-21 0 -36 14.5t-15 36.5q0 23 15 37.5t36 14.5t36 -14.5t15 -37.5
q0 -22 -15 -36.5t-36 -14.5z" />
    <glyph glyph-name="aring" unicode="&#xe5;" horiz-adv-x="598" 
d="M420 0v112l-5 21v191q0 61 -35.5 94.5t-106.5 33.5q-47 0 -92 -15.5t-76 -41.5l-40 72q41 33 98.5 50.5t120.5 17.5q109 0 168 -53t59 -162v-320h-91zM246 -6q-59 0 -103.5 20t-68.5 55.5t-24 80.5q0 43 20.5 78t67 56t125.5 21h168v-69h-164q-72 0 -97 -24t-25 -58
q0 -39 31 -62.5t86 -23.5q54 0 94.5 24t58.5 70l19 -66q-19 -47 -67 -74.5t-121 -27.5zM290 594q-31 0 -56 15t-39.5 39t-14.5 54t14.5 55t39.5 40t56 15q32 0 57 -15t39.5 -40t14.5 -55t-14.5 -54t-39.5 -39t-57 -15zM290 636q29 0 47.5 19t18.5 47q0 29 -18.5 48t-47.5 19
q-28 0 -46.5 -18.5t-18.5 -48.5q0 -28 18 -47t47 -19z" />
    <glyph glyph-name="ae" unicode="&#xe6;" horiz-adv-x="989" 
d="M256 -6q-97 0 -151.5 44.5t-54.5 115.5q0 40 20.5 74t67 55t125.5 21h167v-69h-163q-71 0 -96.5 -23.5t-25.5 -55.5q0 -41 31.5 -64.5t87.5 -23.5q71 0 111 36.5t40 96.5v123q0 61 -35.5 94.5t-105.5 33.5q-48 0 -93 -15.5t-76 -41.5l-40 72q41 33 98.5 50.5t119.5 17.5
q92 0 146 -36.5t69 -107.5l-46 6q31 64 91.5 101t139.5 37q57 0 105.5 -19.5t84 -55.5t55 -85t19.5 -107q0 -10 -0.5 -18t-2.5 -15h-452v69h402l-40 -26q0 57 -24 96t-63.5 59.5t-84.5 20.5q-43 0 -82.5 -20.5t-64 -60t-24.5 -97.5v-16q0 -53 24 -94.5t67.5 -64.5t101.5 -23
q47 0 85 16t68 48l54 -62q-37 -43 -90.5 -64.5t-119.5 -21.5q-61 0 -115 19t-94 59t-62 103l62 -2q-12 -67 -48.5 -106.5t-86 -56t-101.5 -16.5z" />
    <glyph glyph-name="ccedilla" unicode="&#xe7;" horiz-adv-x="571" 
d="M322 -6q-81 0 -144.5 35t-99.5 96t-36 140t36 140t99.5 95.5t144.5 34.5q72 0 128.5 -28.5t87.5 -84.5l-73 -47q-26 39 -63.5 57.5t-80.5 18.5q-52 0 -93 -23t-65 -64.5t-24 -98.5t24 -99t65 -65t93 -23q43 0 80.5 18.5t63.5 57.5l73 -46q-31 -55 -87.5 -84.5
t-128.5 -29.5zM275 -224q-26 0 -48 5.5t-41 16.5l21 49q16 -9 32.5 -13t35.5 -4q29 0 42.5 10.5t13.5 29.5q0 18 -13.5 28.5t-43.5 10.5h-27l25 98h55l-15 -57q43 -4 65 -27t22 -56q0 -42 -34 -66.5t-90 -24.5z" />
    <glyph glyph-name="egrave" unicode="&#xe8;" horiz-adv-x="612" 
d="M327 -6q-85 0 -149.5 35t-100 96t-35.5 140t34.5 140t95 95.5t136.5 34.5q77 0 136 -34t92.5 -95.5t33.5 -143.5q0 -6 -0.5 -14t-1.5 -15h-451v69h401l-39 -24q1 51 -21 91t-60.5 62.5t-89.5 22.5q-50 0 -89 -22.5t-61 -63t-22 -92.5v-16q0 -53 24.5 -94.5t68.5 -64.5
t101 -23q47 0 85.5 16t67.5 48l53 -62q-36 -42 -89.5 -64t-119.5 -22zM292 607l-168 130h122l136 -130h-90z" />
    <glyph glyph-name="eacute" unicode="&#xe9;" horiz-adv-x="612" 
d="M327 -6q-85 0 -149.5 35t-100 96t-35.5 140t34.5 140t95 95.5t136.5 34.5q77 0 136 -34t92.5 -95.5t33.5 -143.5q0 -6 -0.5 -14t-1.5 -15h-451v69h401l-39 -24q1 51 -21 91t-60.5 62.5t-89.5 22.5q-50 0 -89 -22.5t-61 -63t-22 -92.5v-16q0 -53 24.5 -94.5t68.5 -64.5
t101 -23q47 0 85.5 16t67.5 48l53 -62q-36 -42 -89.5 -64t-119.5 -22zM232 607l136 130h122l-168 -130h-90z" />
    <glyph glyph-name="ecircumflex" unicode="&#xea;" horiz-adv-x="612" 
d="M327 -6q-85 0 -149.5 35t-100 96t-35.5 140t34.5 140t95 95.5t136.5 34.5q77 0 136 -34t92.5 -95.5t33.5 -143.5q0 -6 -0.5 -14t-1.5 -15h-451v69h401l-39 -24q1 51 -21 91t-60.5 62.5t-89.5 22.5q-50 0 -89 -22.5t-61 -63t-22 -92.5v-16q0 -53 24.5 -94.5t68.5 -64.5
t101 -23q47 0 85.5 16t67.5 48l53 -62q-36 -42 -89.5 -64t-119.5 -22zM128 607l133 130h92l133 -130h-87l-132 110h80l-132 -110h-87z" />
    <glyph glyph-name="edieresis" unicode="&#xeb;" horiz-adv-x="612" 
d="M327 -6q-85 0 -149.5 35t-100 96t-35.5 140t34.5 140t95 95.5t136.5 34.5q77 0 136 -34t92.5 -95.5t33.5 -143.5q0 -6 -0.5 -14t-1.5 -15h-451v69h401l-39 -24q1 51 -21 91t-60.5 62.5t-89.5 22.5q-50 0 -89 -22.5t-61 -63t-22 -92.5v-16q0 -53 24.5 -94.5t68.5 -64.5
t101 -23q47 0 85.5 16t67.5 48l53 -62q-36 -42 -89.5 -64t-119.5 -22zM400 624q-21 0 -36 14.5t-15 36.5q0 23 15 37.5t36 14.5t36 -14.5t15 -37.5q0 -22 -15 -36.5t-36 -14.5zM214 624q-21 0 -36 14.5t-15 36.5q0 23 15 37.5t36 14.5t36 -14.5t15 -37.5q0 -22 -15 -36.5
t-36 -14.5z" />
    <glyph glyph-name="igrave" unicode="&#xec;" horiz-adv-x="279" 
d="M91 0v530h96v-530h-96zM124 607l-168 130h122l136 -130h-90z" />
    <glyph glyph-name="iacute" unicode="&#xed;" horiz-adv-x="279" 
d="M91 0v530h96v-530h-96zM64 607l136 130h122l-168 -130h-90z" />
    <glyph glyph-name="icircumflex" unicode="&#xee;" horiz-adv-x="279" 
d="M91 0v530h96v-530h-96zM-15 607l109 130h90l109 -130h-82l-107 110h70l-107 -110h-82z" />
    <glyph glyph-name="idieresis" unicode="&#xef;" horiz-adv-x="279" 
d="M91 0v530h96v-530h-96zM210 625q-21 0 -35 14.5t-14 35.5q0 22 14 36.5t35 14.5t35.5 -14.5t14.5 -36.5q0 -21 -14.5 -35.5t-35.5 -14.5zM68 625q-21 0 -35.5 14.5t-14.5 35.5q0 22 14.5 36.5t35.5 14.5t35 -14.5t14 -36.5q0 -21 -14 -35.5t-35 -14.5z" />
    <glyph glyph-name="eth" unicode="&#xf0;" horiz-adv-x="640" 
d="M294 -8q-71 0 -128 27.5t-90.5 77.5t-33.5 119q0 68 33.5 118t91 77.5t130.5 27.5q58 0 105 -20.5t79.5 -59t44.5 -94.5l-37 -14q7 28 9.5 58t2.5 57q0 93 -30.5 155t-86.5 93t-133 31q-43 0 -79.5 -6.5t-65.5 -16.5l-16 82q32 10 73 16t88 6q105 0 182.5 -43t121 -128
t43.5 -210q0 -109 -36 -188t-103 -122t-165 -43zM301 73q55 0 93.5 20.5t58.5 53t20 69.5q0 40 -21.5 72.5t-58.5 51t-86 18.5q-78 0 -123 -39t-45 -103q0 -43 20.5 -75t57 -50t84.5 -18zM154 480l-26 63l411 166l26 -64z" />
    <glyph glyph-name="ntilde" unicode="&#xf1;" horiz-adv-x="681" 
d="M374 535q65 0 114.5 -25t77.5 -76t28 -129v-305h-96v294q0 77 -37.5 116t-105.5 39q-51 0 -89 -20t-58.5 -59t-20.5 -97v-273h-96v530h92v-143l-15 38q26 52 80 81t126 29zM413 610q-24 0 -42.5 10t-33.5 23.5t-29 23.5t-28 10q-22 0 -35.5 -16.5t-15.5 -45.5h-54
q2 56 28 89t70 33q24 0 43 -10.5t34 -24t28.5 -23.5t27.5 -10q22 0 36 16t15 44h54q-1 -53 -27.5 -86t-70.5 -33z" />
    <glyph glyph-name="ograve" unicode="&#xf2;" horiz-adv-x="635" 
d="M318 -6q-80 0 -142 35t-98 96.5t-36 139.5q0 79 36 140t98 95.5t142 34.5q79 0 141.5 -34.5t98 -95t35.5 -140.5q0 -79 -35.5 -140t-98 -96t-141.5 -35zM318 78q51 0 91.5 23t63.5 65.5t23 98.5q0 57 -23 98.5t-63.5 64.5t-91.5 23t-91 -23t-64 -64.5t-24 -98.5
q0 -56 24 -98.5t64 -65.5t91 -23zM302 607l-168 130h122l136 -130h-90z" />
    <glyph glyph-name="oacute" unicode="&#xf3;" horiz-adv-x="635" 
d="M318 -6q-80 0 -142 35t-98 96.5t-36 139.5q0 79 36 140t98 95.5t142 34.5q79 0 141.5 -34.5t98 -95t35.5 -140.5q0 -79 -35.5 -140t-98 -96t-141.5 -35zM318 78q51 0 91.5 23t63.5 65.5t23 98.5q0 57 -23 98.5t-63.5 64.5t-91.5 23t-91 -23t-64 -64.5t-24 -98.5
q0 -56 24 -98.5t64 -65.5t91 -23zM242 607l136 130h122l-168 -130h-90z" />
    <glyph glyph-name="ocircumflex" unicode="&#xf4;" horiz-adv-x="635" 
d="M318 -6q-80 0 -142 35t-98 96.5t-36 139.5q0 79 36 140t98 95.5t142 34.5q79 0 141.5 -34.5t98 -95t35.5 -140.5q0 -79 -35.5 -140t-98 -96t-141.5 -35zM318 78q51 0 91.5 23t63.5 65.5t23 98.5q0 57 -23 98.5t-63.5 64.5t-91.5 23t-91 -23t-64 -64.5t-24 -98.5
q0 -56 24 -98.5t64 -65.5t91 -23zM138 607l133 130h92l133 -130h-87l-132 110h80l-132 -110h-87z" />
    <glyph glyph-name="otilde" unicode="&#xf5;" horiz-adv-x="635" 
d="M318 -6q-80 0 -142 35t-98 96.5t-36 139.5q0 79 36 140t98 95.5t142 34.5q79 0 141.5 -34.5t98 -95t35.5 -140.5q0 -79 -35.5 -140t-98 -96t-141.5 -35zM318 78q51 0 91.5 23t63.5 65.5t23 98.5q0 57 -23 98.5t-63.5 64.5t-91.5 23t-91 -23t-64 -64.5t-24 -98.5
q0 -56 24 -98.5t64 -65.5t91 -23zM387 610q-24 0 -42.5 10t-33.5 23.5t-29 23.5t-28 10q-22 0 -35.5 -16.5t-15.5 -45.5h-54q2 56 28 89t70 33q24 0 43 -10.5t34 -24t28.5 -23.5t27.5 -10q22 0 36 16t15 44h54q-1 -53 -27.5 -86t-70.5 -33z" />
    <glyph glyph-name="odieresis" unicode="&#xf6;" horiz-adv-x="635" 
d="M318 -6q-80 0 -142 35t-98 96.5t-36 139.5q0 79 36 140t98 95.5t142 34.5q79 0 141.5 -34.5t98 -95t35.5 -140.5q0 -79 -35.5 -140t-98 -96t-141.5 -35zM318 78q51 0 91.5 23t63.5 65.5t23 98.5q0 57 -23 98.5t-63.5 64.5t-91.5 23t-91 -23t-64 -64.5t-24 -98.5
q0 -56 24 -98.5t64 -65.5t91 -23zM410 624q-21 0 -36 14.5t-15 36.5q0 23 15 37.5t36 14.5t36 -14.5t15 -37.5q0 -22 -15 -36.5t-36 -14.5zM224 624q-21 0 -36 14.5t-15 36.5q0 23 15 37.5t36 14.5t36 -14.5t15 -37.5q0 -22 -15 -36.5t-36 -14.5z" />
    <glyph glyph-name="divide" unicode="&#xf7;" horiz-adv-x="582" 
d="M67 310v79h448v-79h-448zM291 93q-24 0 -40.5 17.5t-16.5 43.5t16.5 42.5t40.5 16.5t41 -16.5t17 -42.5t-17 -43.5t-41 -17.5zM291 487q-24 0 -40.5 17.5t-16.5 42.5q0 26 16.5 43t40.5 17t41 -17t17 -43q0 -25 -17 -42.5t-41 -17.5z" />
    <glyph glyph-name="oslash" unicode="&#xf8;" horiz-adv-x="635" 
d="M318 -6q-80 0 -142 35t-98 96.5t-36 139.5q0 79 36 140t98 95.5t142 34.5q79 0 141.5 -34.5t98 -95t35.5 -140.5q0 -79 -35.5 -140t-98 -96t-141.5 -35zM318 78q51 0 91.5 23t63.5 65.5t23 98.5q0 57 -23 98.5t-63.5 64.5t-91.5 23t-91 -23t-64 -64.5t-24 -98.5
q0 -56 24 -98.5t64 -65.5t91 -23zM66 -71l441 669h59l-440 -669h-60z" />
    <glyph glyph-name="ugrave" unicode="&#xf9;" horiz-adv-x="677" 
d="M314 -6q-68 0 -119.5 25t-80 76.5t-28.5 129.5v305h96v-294q0 -78 37.5 -117t105.5 -39q50 0 87 20.5t57 60t20 95.5v274h96v-530h-91v143l15 -38q-26 -53 -78 -82t-117 -29zM321 607l-168 130h122l136 -130h-90z" />
    <glyph glyph-name="uacute" unicode="&#xfa;" horiz-adv-x="677" 
d="M314 -6q-68 0 -119.5 25t-80 76.5t-28.5 129.5v305h96v-294q0 -78 37.5 -117t105.5 -39q50 0 87 20.5t57 60t20 95.5v274h96v-530h-91v143l15 -38q-26 -53 -78 -82t-117 -29zM261 607l136 130h122l-168 -130h-90z" />
    <glyph glyph-name="ucircumflex" unicode="&#xfb;" horiz-adv-x="677" 
d="M314 -6q-68 0 -119.5 25t-80 76.5t-28.5 129.5v305h96v-294q0 -78 37.5 -117t105.5 -39q50 0 87 20.5t57 60t20 95.5v274h96v-530h-91v143l15 -38q-26 -53 -78 -82t-117 -29zM157 607l133 130h92l133 -130h-87l-132 110h80l-132 -110h-87z" />
    <glyph glyph-name="udieresis" unicode="&#xfc;" horiz-adv-x="677" 
d="M314 -6q-68 0 -119.5 25t-80 76.5t-28.5 129.5v305h96v-294q0 -78 37.5 -117t105.5 -39q50 0 87 20.5t57 60t20 95.5v274h96v-530h-91v143l15 -38q-26 -53 -78 -82t-117 -29zM429 624q-21 0 -36 14.5t-15 36.5q0 23 15 37.5t36 14.5t36 -14.5t15 -37.5q0 -22 -15 -36.5
t-36 -14.5zM243 624q-21 0 -36 14.5t-15 36.5q0 23 15 37.5t36 14.5t36 -14.5t15 -37.5q0 -22 -15 -36.5t-36 -14.5z" />
    <glyph glyph-name="yacute" unicode="&#xfd;" horiz-adv-x="559" 
d="M114 -200q-38 0 -74 12.5t-62 36.5l41 72q20 -19 44 -29t51 -10q35 0 58 18t43 64l33 73l10 12l208 481h94l-257 -583q-23 -56 -51.5 -88t-62.5 -45.5t-75 -13.5zM240 -17l-242 547h100l206 -472zM191 607l136 130h122l-168 -130h-90z" />
    <glyph glyph-name="thorn" unicode="&#xfe;" horiz-adv-x="682" 
d="M372 -6q-66 0 -120.5 30.5t-87 90.5t-32.5 150t31.5 150t86 90t122.5 30q78 0 138 -34t95 -94.5t35 -141.5t-35 -142t-95 -95t-138 -34zM91 -194v936h96v-355l-10 -123l10 -123v-335h-96zM364 78q51 0 91.5 23t64 65.5t23.5 98.5q0 57 -23.5 98.5t-64 64.5t-91.5 23
q-50 0 -90.5 -23t-64 -64.5t-23.5 -98.5q0 -56 23.5 -98.5t64 -65.5t90.5 -23z" />
    <glyph glyph-name="ydieresis" unicode="&#xff;" horiz-adv-x="559" 
d="M114 -200q-38 0 -74 12.5t-62 36.5l41 72q20 -19 44 -29t51 -10q35 0 58 18t43 64l33 73l10 12l208 481h94l-257 -583q-23 -56 -51.5 -88t-62.5 -45.5t-75 -13.5zM240 -17l-242 547h100l206 -472zM359 624q-21 0 -36 14.5t-15 36.5q0 23 15 37.5t36 14.5t36 -14.5
t15 -37.5q0 -22 -15 -36.5t-36 -14.5zM173 624q-21 0 -36 14.5t-15 36.5q0 23 15 37.5t36 14.5t36 -14.5t15 -37.5q0 -22 -15 -36.5t-36 -14.5z" />
    <glyph glyph-name="Amacron" unicode="&#x100;" horiz-adv-x="732" 
d="M-1 0l317 700h99l318 -700h-105l-283 644h40l-283 -644h-103zM134 175l27 80h394l29 -80h-450zM203 792v60h326v-60h-326z" />
    <glyph glyph-name="amacron" unicode="&#x101;" horiz-adv-x="598" 
d="M420 0v112l-5 21v191q0 61 -35.5 94.5t-106.5 33.5q-47 0 -92 -15.5t-76 -41.5l-40 72q41 33 98.5 50.5t120.5 17.5q109 0 168 -53t59 -162v-320h-91zM246 -6q-59 0 -103.5 20t-68.5 55.5t-24 80.5q0 43 20.5 78t67 56t125.5 21h168v-69h-164q-72 0 -97 -24t-25 -58
q0 -39 31 -62.5t86 -23.5q54 0 94.5 24t58.5 70l19 -66q-19 -47 -67 -74.5t-121 -27.5zM128 642v60h326v-60h-326z" />
    <glyph glyph-name="Abreve" unicode="&#x102;" horiz-adv-x="732" 
d="M-1 0l317 700h99l318 -700h-105l-283 644h40l-283 -644h-103zM134 175l27 80h394l29 -80h-450zM366 751q-68 0 -114 36.5t-48 99.5h65q2 -37 30 -58.5t67 -21.5t67.5 21.5t29.5 58.5h65q-2 -63 -48 -99.5t-114 -36.5z" />
    <glyph glyph-name="abreve" unicode="&#x103;" horiz-adv-x="598" 
d="M420 0v112l-5 21v191q0 61 -35.5 94.5t-106.5 33.5q-47 0 -92 -15.5t-76 -41.5l-40 72q41 33 98.5 50.5t120.5 17.5q109 0 168 -53t59 -162v-320h-91zM246 -6q-59 0 -103.5 20t-68.5 55.5t-24 80.5q0 43 20.5 78t67 56t125.5 21h168v-69h-164q-72 0 -97 -24t-25 -58
q0 -39 31 -62.5t86 -23.5q54 0 94.5 24t58.5 70l19 -66q-19 -47 -67 -74.5t-121 -27.5zM291 601q-68 0 -114 36.5t-48 99.5h65q2 -37 30 -58.5t67 -21.5t67.5 21.5t29.5 58.5h65q-2 -63 -48 -99.5t-114 -36.5z" />
    <glyph glyph-name="Aogonek" unicode="&#x104;" horiz-adv-x="732" 
d="M-1 0l317 700h99l318 -700h-105l-283 644h40l-283 -644h-103zM134 175l27 80h394l29 -80h-450zM665 -224q-56 0 -88 28t-32 73q0 27 13.5 54t45.5 53t84 48l45 -32q-44 -20 -70 -39t-37.5 -38t-11.5 -39q0 -25 17.5 -38.5t43.5 -13.5q17 0 33.5 5t28.5 12l18 -49
q-18 -11 -41.5 -17.5t-48.5 -6.5z" />
    <glyph glyph-name="aogonek" unicode="&#x105;" horiz-adv-x="598" 
d="M420 0v112l-5 21v191q0 61 -35.5 94.5t-106.5 33.5q-47 0 -92 -15.5t-76 -41.5l-40 72q41 33 98.5 50.5t120.5 17.5q109 0 168 -53t59 -162v-320h-91zM246 -6q-59 0 -103.5 20t-68.5 55.5t-24 80.5q0 43 20.5 78t67 56t125.5 21h168v-69h-164q-72 0 -97 -24t-25 -58
q0 -39 31 -62.5t86 -23.5q54 0 94.5 24t58.5 70l19 -66q-19 -47 -67 -74.5t-121 -27.5zM443 -224q-56 0 -88 28t-32 73q0 27 13.5 54t45.5 53t84 48l45 -32q-44 -20 -70 -39t-37.5 -38t-11.5 -39q0 -25 17.5 -38.5t43.5 -13.5q17 0 33.5 5t28.5 12l18 -49
q-18 -11 -41.5 -17.5t-48.5 -6.5z" />
    <glyph glyph-name="Cacute" unicode="&#x106;" horiz-adv-x="723" 
d="M418 -8q-80 0 -147.5 26.5t-117 75t-77.5 113.5t-28 143t28 143t78 113.5t117.5 75t147.5 26.5q81 0 149.5 -27.5t116.5 -81.5l-65 -63q-40 42 -90 62.5t-107 20.5q-59 0 -109.5 -20t-87.5 -56t-57.5 -85.5t-20.5 -107.5t20.5 -107.5t57.5 -85.5t87.5 -56t109.5 -20
q57 0 107 20.5t90 63.5l65 -63q-48 -54 -116.5 -82t-150.5 -28zM336 757l136 130h122l-168 -130h-90z" />
    <glyph glyph-name="cacute" unicode="&#x107;" horiz-adv-x="571" 
d="M322 -6q-81 0 -144.5 35t-99.5 96t-36 140t36 140t99.5 95.5t144.5 34.5q72 0 128.5 -28.5t87.5 -84.5l-73 -47q-26 39 -63.5 57.5t-80.5 18.5q-52 0 -93 -23t-65 -64.5t-24 -98.5t24 -99t65 -65t93 -23q43 0 80.5 18.5t63.5 57.5l73 -46q-31 -55 -87.5 -84.5
t-128.5 -29.5zM228 607l136 130h122l-168 -130h-90z" />
    <glyph glyph-name="Ccircumflex" unicode="&#x108;" horiz-adv-x="723" 
d="M418 -8q-80 0 -147.5 26.5t-117 75t-77.5 113.5t-28 143t28 143t78 113.5t117.5 75t147.5 26.5q81 0 149.5 -27.5t116.5 -81.5l-65 -63q-40 42 -90 62.5t-107 20.5q-59 0 -109.5 -20t-87.5 -56t-57.5 -85.5t-20.5 -107.5t20.5 -107.5t57.5 -85.5t87.5 -56t109.5 -20
q57 0 107 20.5t90 63.5l65 -63q-48 -54 -116.5 -82t-150.5 -28zM232 757l133 130h92l133 -130h-87l-132 110h80l-132 -110h-87z" />
    <glyph glyph-name="ccircumflex" unicode="&#x109;" horiz-adv-x="571" 
d="M322 -6q-81 0 -144.5 35t-99.5 96t-36 140t36 140t99.5 95.5t144.5 34.5q72 0 128.5 -28.5t87.5 -84.5l-73 -47q-26 39 -63.5 57.5t-80.5 18.5q-52 0 -93 -23t-65 -64.5t-24 -98.5t24 -99t65 -65t93 -23q43 0 80.5 18.5t63.5 57.5l73 -46q-31 -55 -87.5 -84.5
t-128.5 -29.5zM124 607l133 130h92l133 -130h-87l-132 110h80l-132 -110h-87z" />
    <glyph glyph-name="Cdotaccent" unicode="&#x10a;" horiz-adv-x="723" 
d="M418 -8q-80 0 -147.5 26.5t-117 75t-77.5 113.5t-28 143t28 143t78 113.5t117.5 75t147.5 26.5q81 0 149.5 -27.5t116.5 -81.5l-65 -63q-40 42 -90 62.5t-107 20.5q-59 0 -109.5 -20t-87.5 -56t-57.5 -85.5t-20.5 -107.5t20.5 -107.5t57.5 -85.5t87.5 -56t109.5 -20
q57 0 107 20.5t90 63.5l65 -63q-48 -54 -116.5 -82t-150.5 -28zM411 775q-25 0 -42 17t-17 42t17 42t42 17t42 -17t17 -42t-17 -42t-42 -17z" />
    <glyph glyph-name="cdotaccent" unicode="&#x10b;" horiz-adv-x="571" 
d="M322 -6q-81 0 -144.5 35t-99.5 96t-36 140t36 140t99.5 95.5t144.5 34.5q72 0 128.5 -28.5t87.5 -84.5l-73 -47q-26 39 -63.5 57.5t-80.5 18.5q-52 0 -93 -23t-65 -64.5t-24 -98.5t24 -99t65 -65t93 -23q43 0 80.5 18.5t63.5 57.5l73 -46q-31 -55 -87.5 -84.5
t-128.5 -29.5zM303 625q-25 0 -42 17t-17 42t17 42t42 17t42 -17t17 -42t-17 -42t-42 -17z" />
    <glyph glyph-name="Ccaron" unicode="&#x10c;" horiz-adv-x="723" 
d="M418 -8q-80 0 -147.5 26.5t-117 75t-77.5 113.5t-28 143t28 143t78 113.5t117.5 75t147.5 26.5q81 0 149.5 -27.5t116.5 -81.5l-65 -63q-40 42 -90 62.5t-107 20.5q-59 0 -109.5 -20t-87.5 -56t-57.5 -85.5t-20.5 -107.5t20.5 -107.5t57.5 -85.5t87.5 -56t109.5 -20
q57 0 107 20.5t90 63.5l65 -63q-48 -54 -116.5 -82t-150.5 -28zM365 757l-133 130h87l132 -109h-80l132 109h87l-133 -130h-92z" />
    <glyph glyph-name="ccaron" unicode="&#x10d;" horiz-adv-x="571" 
d="M322 -6q-81 0 -144.5 35t-99.5 96t-36 140t36 140t99.5 95.5t144.5 34.5q72 0 128.5 -28.5t87.5 -84.5l-73 -47q-26 39 -63.5 57.5t-80.5 18.5q-52 0 -93 -23t-65 -64.5t-24 -98.5t24 -99t65 -65t93 -23q43 0 80.5 18.5t63.5 57.5l73 -46q-31 -55 -87.5 -84.5
t-128.5 -29.5zM257 607l-133 130h87l132 -109h-80l132 109h87l-133 -130h-92z" />
    <glyph glyph-name="Dcaron" unicode="&#x10e;" horiz-adv-x="826" 
d="M105 0v700h295q112 0 197.5 -44t133 -123t47.5 -183t-47.5 -183t-133 -123t-197.5 -44h-295zM205 87h189q87 0 150.5 33t98.5 92.5t35 137.5q0 79 -35 138t-98.5 92t-150.5 33h-189v-526zM333 756l-133 130h87l132 -109h-80l132 109h87l-133 -130h-92z" />
    <glyph glyph-name="dcaron" unicode="&#x10f;" horiz-adv-x="682" 
d="M310 -6q-77 0 -137.5 34t-95.5 95t-35 142t35 141.5t95.5 94.5t137.5 34q67 0 121 -30t86.5 -90t32.5 -150t-31.5 -150t-85.5 -90.5t-123 -30.5zM318 78q50 0 90.5 23t64 65.5t23.5 98.5q0 57 -23.5 98.5t-64 64.5t-90.5 23q-51 0 -91 -23t-64 -64.5t-24 -98.5
q0 -56 24 -98.5t64 -65.5t91 -23zM499 0v143l6 123l-10 123v353h96v-742h-92zM680 582v193h79l-12 -193h-67z" />
    <glyph glyph-name="Dcroat" unicode="&#x110;" horiz-adv-x="834" 
d="M113 0v700h295q112 0 197.5 -44t133 -123t47.5 -183t-47.5 -183t-133 -123t-197.5 -44h-295zM213 87h189q87 0 150.5 33t98.5 92.5t35 137.5q0 79 -35 138t-98.5 92t-150.5 33h-189v-526zM10 317v79h400v-79h-400z" />
    <glyph glyph-name="dcroat" unicode="&#x111;" horiz-adv-x="682" 
d="M310 -6q-77 0 -137.5 34t-95.5 95t-35 142t35 141.5t95.5 94.5t137.5 34q67 0 121 -30t86.5 -90t32.5 -150t-31.5 -150t-85.5 -90.5t-123 -30.5zM318 78q50 0 90.5 23t64 65.5t23.5 98.5q0 57 -23.5 98.5t-64 64.5t-90.5 23q-51 0 -91 -23t-64 -64.5t-24 -98.5
q0 -56 24 -98.5t64 -65.5t91 -23zM499 0v143l6 123l-10 123v353h96v-742h-92zM286 601v68h396v-68h-396z" />
    <glyph glyph-name="Emacron" unicode="&#x112;" horiz-adv-x="670" 
d="M196 398h360v-85h-360v85zM205 87h408v-87h-508v700h494v-87h-394v-526zM190 792v60h326v-60h-326z" />
    <glyph glyph-name="emacron" unicode="&#x113;" horiz-adv-x="612" 
d="M327 -6q-85 0 -149.5 35t-100 96t-35.5 140t34.5 140t95 95.5t136.5 34.5q77 0 136 -34t92.5 -95.5t33.5 -143.5q0 -6 -0.5 -14t-1.5 -15h-451v69h401l-39 -24q1 51 -21 91t-60.5 62.5t-89.5 22.5q-50 0 -89 -22.5t-61 -63t-22 -92.5v-16q0 -53 24.5 -94.5t68.5 -64.5
t101 -23q47 0 85.5 16t67.5 48l53 -62q-36 -42 -89.5 -64t-119.5 -22zM144 642v60h326v-60h-326z" />
    <glyph glyph-name="Ebreve" unicode="&#x114;" horiz-adv-x="670" 
d="M196 398h360v-85h-360v85zM205 87h408v-87h-508v700h494v-87h-394v-526zM353 751q-68 0 -114 36.5t-48 99.5h65q2 -37 30 -58.5t67 -21.5t67.5 21.5t29.5 58.5h65q-2 -63 -48 -99.5t-114 -36.5z" />
    <glyph glyph-name="ebreve" unicode="&#x115;" horiz-adv-x="612" 
d="M327 -6q-85 0 -149.5 35t-100 96t-35.5 140t34.5 140t95 95.5t136.5 34.5q77 0 136 -34t92.5 -95.5t33.5 -143.5q0 -6 -0.5 -14t-1.5 -15h-451v69h401l-39 -24q1 51 -21 91t-60.5 62.5t-89.5 22.5q-50 0 -89 -22.5t-61 -63t-22 -92.5v-16q0 -53 24.5 -94.5t68.5 -64.5
t101 -23q47 0 85.5 16t67.5 48l53 -62q-36 -42 -89.5 -64t-119.5 -22zM307 601q-68 0 -114 36.5t-48 99.5h65q2 -37 30 -58.5t67 -21.5t67.5 21.5t29.5 58.5h65q-2 -63 -48 -99.5t-114 -36.5z" />
    <glyph glyph-name="Edotaccent" unicode="&#x116;" horiz-adv-x="670" 
d="M196 398h360v-85h-360v85zM205 87h408v-87h-508v700h494v-87h-394v-526zM353 775q-25 0 -42 17t-17 42t17 42t42 17t42 -17t17 -42t-17 -42t-42 -17z" />
    <glyph glyph-name="edotaccent" unicode="&#x117;" horiz-adv-x="612" 
d="M327 -6q-85 0 -149.5 35t-100 96t-35.5 140t34.5 140t95 95.5t136.5 34.5q77 0 136 -34t92.5 -95.5t33.5 -143.5q0 -6 -0.5 -14t-1.5 -15h-451v69h401l-39 -24q1 51 -21 91t-60.5 62.5t-89.5 22.5q-50 0 -89 -22.5t-61 -63t-22 -92.5v-16q0 -53 24.5 -94.5t68.5 -64.5
t101 -23q47 0 85.5 16t67.5 48l53 -62q-36 -42 -89.5 -64t-119.5 -22zM307 625q-25 0 -42 17t-17 42t17 42t42 17t42 -17t17 -42t-17 -42t-42 -17z" />
    <glyph glyph-name="Eogonek" unicode="&#x118;" horiz-adv-x="670" 
d="M196 398h360v-85h-360v85zM205 87h408v-87h-508v700h494v-87h-394v-526zM545 -224q-56 0 -88 28t-32 73q0 27 13.5 54t45.5 53t84 48l45 -32q-44 -20 -70 -39t-37.5 -38t-11.5 -39q0 -25 17.5 -38.5t43.5 -13.5q17 0 33.5 5t28.5 12l18 -49q-18 -11 -41.5 -17.5
t-48.5 -6.5z" />
    <glyph glyph-name="eogonek" unicode="&#x119;" horiz-adv-x="612" 
d="M436 -224q-55 0 -87.5 29t-32.5 76q0 34 19 72.5t62 71.5l34 -14q-23 -8 -49.5 -12.5t-54.5 -4.5q-85 0 -149.5 35t-100 96t-35.5 140t34.5 140t95 95.5t136.5 34.5q77 0 136 -34t92.5 -95.5t33.5 -143.5q0 -6 -0.5 -14t-1.5 -15h-451v69h401l-39 -24q1 51 -21 91
t-60.5 62.5t-89.5 22.5q-50 0 -89 -22.5t-61 -63t-22 -92.5v-16q0 -53 24.5 -94.5t68.5 -64.5t101 -23q47 0 85.5 16t67.5 48l53 -62q-8 -10 -18 -18t-21 -18q-44 -37 -68.5 -65t-34.5 -50t-10 -42q0 -28 17.5 -41.5t44.5 -13.5q16 0 32.5 5t28.5 12l19 -49
q-19 -11 -42 -17.5t-48 -6.5z" />
    <glyph glyph-name="Ecaron" unicode="&#x11a;" horiz-adv-x="670" 
d="M196 398h360v-85h-360v85zM205 87h408v-87h-508v700h494v-87h-394v-526zM307 757l-133 130h87l132 -109h-80l132 109h87l-133 -130h-92z" />
    <glyph glyph-name="ecaron" unicode="&#x11b;" horiz-adv-x="612" 
d="M327 -6q-85 0 -149.5 35t-100 96t-35.5 140t34.5 140t95 95.5t136.5 34.5q77 0 136 -34t92.5 -95.5t33.5 -143.5q0 -6 -0.5 -14t-1.5 -15h-451v69h401l-39 -24q1 51 -21 91t-60.5 62.5t-89.5 22.5q-50 0 -89 -22.5t-61 -63t-22 -92.5v-16q0 -53 24.5 -94.5t68.5 -64.5
t101 -23q47 0 85.5 16t67.5 48l53 -62q-36 -42 -89.5 -64t-119.5 -22zM261 607l-133 130h87l132 -109h-80l132 109h87l-133 -130h-92z" />
    <glyph glyph-name="Gcircumflex" unicode="&#x11c;" horiz-adv-x="772" 
d="M421 -8q-81 0 -149 26.5t-118 75t-78 113.5t-28 143t28 143t78.5 113.5t118.5 75t150 26.5q83 0 152 -27t117 -81l-62 -62q-43 42 -93.5 61.5t-109.5 19.5q-60 0 -111.5 -20t-89 -56t-58 -85.5t-20.5 -107.5q0 -57 20.5 -106.5t58 -86t88.5 -56.5t111 -20
q56 0 107.5 17.5t95.5 58.5l57 -76q-52 -44 -121.5 -66.5t-143.5 -22.5zM590 94v260h96v-273zM231 757l133 130h92l133 -130h-87l-132 110h80l-132 -110h-87z" />
    <glyph glyph-name="gcircumflex" unicode="&#x11d;" horiz-adv-x="690" 
d="M323 -200q-73 0 -141.5 20.5t-111.5 58.5l46 74q37 -32 91 -50.5t113 -18.5q94 0 138 44t44 134v112l10 105l-5 106v145h91v-458q0 -140 -70 -206t-205 -66zM311 22q-77 0 -137.5 32.5t-96 90.5t-35.5 134q0 77 35.5 134.5t96 89.5t137.5 32q68 0 124 -27.5t89.5 -84.5
t33.5 -144q0 -86 -33.5 -143t-89.5 -85.5t-124 -28.5zM322 106q53 0 94 22t64.5 61t23.5 90t-23.5 90t-64.5 60.5t-94 21.5t-94.5 -21.5t-65 -60.5t-23.5 -90t23.5 -90t65 -61t94.5 -22zM150 607l133 130h92l133 -130h-87l-132 110h80l-132 -110h-87z" />
    <glyph glyph-name="Gbreve" unicode="&#x11e;" horiz-adv-x="772" 
d="M421 -8q-81 0 -149 26.5t-118 75t-78 113.5t-28 143t28 143t78.5 113.5t118.5 75t150 26.5q83 0 152 -27t117 -81l-62 -62q-43 42 -93.5 61.5t-109.5 19.5q-60 0 -111.5 -20t-89 -56t-58 -85.5t-20.5 -107.5q0 -57 20.5 -106.5t58 -86t88.5 -56.5t111 -20
q56 0 107.5 17.5t95.5 58.5l57 -76q-52 -44 -121.5 -66.5t-143.5 -22.5zM590 94v260h96v-273zM410 751q-68 0 -114 36.5t-48 99.5h65q2 -37 30 -58.5t67 -21.5t67.5 21.5t29.5 58.5h65q-2 -63 -48 -99.5t-114 -36.5z" />
    <glyph glyph-name="gbreve" unicode="&#x11f;" horiz-adv-x="690" 
d="M323 -200q-73 0 -141.5 20.5t-111.5 58.5l46 74q37 -32 91 -50.5t113 -18.5q94 0 138 44t44 134v112l10 105l-5 106v145h91v-458q0 -140 -70 -206t-205 -66zM311 22q-77 0 -137.5 32.5t-96 90.5t-35.5 134q0 77 35.5 134.5t96 89.5t137.5 32q68 0 124 -27.5t89.5 -84.5
t33.5 -144q0 -86 -33.5 -143t-89.5 -85.5t-124 -28.5zM322 106q53 0 94 22t64.5 61t23.5 90t-23.5 90t-64.5 60.5t-94 21.5t-94.5 -21.5t-65 -60.5t-23.5 -90t23.5 -90t65 -61t94.5 -22zM329 601q-68 0 -114 36.5t-48 99.5h65q2 -37 30 -58.5t67 -21.5t67.5 21.5t29.5 58.5
h65q-2 -63 -48 -99.5t-114 -36.5z" />
    <glyph glyph-name="Gdotaccent" unicode="&#x120;" horiz-adv-x="772" 
d="M421 -8q-81 0 -149 26.5t-118 75t-78 113.5t-28 143t28 143t78.5 113.5t118.5 75t150 26.5q83 0 152 -27t117 -81l-62 -62q-43 42 -93.5 61.5t-109.5 19.5q-60 0 -111.5 -20t-89 -56t-58 -85.5t-20.5 -107.5q0 -57 20.5 -106.5t58 -86t88.5 -56.5t111 -20
q56 0 107.5 17.5t95.5 58.5l57 -76q-52 -44 -121.5 -66.5t-143.5 -22.5zM590 94v260h96v-273zM410 775q-25 0 -42 17t-17 42t17 42t42 17t42 -17t17 -42t-17 -42t-42 -17z" />
    <glyph glyph-name="gdotaccent" unicode="&#x121;" horiz-adv-x="690" 
d="M323 -200q-73 0 -141.5 20.5t-111.5 58.5l46 74q37 -32 91 -50.5t113 -18.5q94 0 138 44t44 134v112l10 105l-5 106v145h91v-458q0 -140 -70 -206t-205 -66zM311 22q-77 0 -137.5 32.5t-96 90.5t-35.5 134q0 77 35.5 134.5t96 89.5t137.5 32q68 0 124 -27.5t89.5 -84.5
t33.5 -144q0 -86 -33.5 -143t-89.5 -85.5t-124 -28.5zM322 106q53 0 94 22t64.5 61t23.5 90t-23.5 90t-64.5 60.5t-94 21.5t-94.5 -21.5t-65 -60.5t-23.5 -90t23.5 -90t65 -61t94.5 -22zM329 625q-25 0 -42 17t-17 42t17 42t42 17t42 -17t17 -42t-17 -42t-42 -17z" />
    <glyph glyph-name="uni0122" unicode="&#x122;" horiz-adv-x="772" 
d="M421 -8q-81 0 -149 26.5t-118 75t-78 113.5t-28 143t28 143t78.5 113.5t118.5 75t150 26.5q83 0 152 -27t117 -81l-62 -62q-43 42 -93.5 61.5t-109.5 19.5q-60 0 -111.5 -20t-89 -56t-58 -85.5t-20.5 -107.5q0 -57 20.5 -106.5t58 -86t88.5 -56.5t111 -20
q56 0 107.5 17.5t95.5 58.5l57 -76q-52 -44 -121.5 -66.5t-143.5 -22.5zM590 94v260h96v-273zM363 -263l33 114l9 -36q-24 0 -37.5 12.5t-13.5 32.5t14 33t37 13q24 0 37.5 -13.5t13.5 -32.5q0 -10 -2.5 -23t-10.5 -28l-30 -72h-50z" />
    <glyph glyph-name="uni0123" unicode="&#x123;" horiz-adv-x="690" 
d="M323 -200q-73 0 -141.5 20.5t-111.5 58.5l46 74q37 -32 91 -50.5t113 -18.5q94 0 138 44t44 134v112l10 105l-5 106v145h91v-458q0 -140 -70 -206t-205 -66zM311 22q-77 0 -137.5 32.5t-96 90.5t-35.5 134q0 77 35.5 134.5t96 89.5t137.5 32q68 0 124 -27.5t89.5 -84.5
t33.5 -144q0 -86 -33.5 -143t-89.5 -85.5t-124 -28.5zM322 106q53 0 94 22t64.5 61t23.5 90t-23.5 90t-64.5 60.5t-94 21.5t-94.5 -21.5t-65 -60.5t-23.5 -90t23.5 -90t65 -61t94.5 -22zM329 601q-27 0 -41.5 13.5t-14.5 32.5q0 10 3.5 22t11.5 28l37 94h55l-39 -135l-12 36
q26 0 41 -12t15 -33q0 -20 -14.5 -33t-41.5 -13z" />
    <glyph glyph-name="Hcircumflex" unicode="&#x124;" horiz-adv-x="812" 
d="M607 700h100v-700h-100v700zM205 0h-100v700h100v-700zM616 312h-421v87h421v-87zM226 757l133 130h92l133 -130h-87l-132 110h80l-132 -110h-87z" />
    <glyph glyph-name="hcircumflex" unicode="&#x125;" horiz-adv-x="681" 
d="M374 535q65 0 114.5 -25t77.5 -76t28 -129v-305h-96v294q0 77 -37.5 116t-105.5 39q-51 0 -89 -20t-58.5 -59t-20.5 -97v-273h-96v742h96v-355l-19 38q26 52 80 81t126 29zM-40 799l133 130h92l133 -130h-87l-132 110h80l-132 -110h-87z" />
    <glyph glyph-name="Hbar" unicode="&#x126;" horiz-adv-x="827" 
d="M615 700h100v-700h-100v700zM213 0h-100v700h100v-700zM624 312h-421v87h421v-87zM9 514v79h807v-79h-807z" />
    <glyph glyph-name="hbar" unicode="&#x127;" horiz-adv-x="681" 
d="M374 535q65 0 114.5 -25t77.5 -76t28 -129v-305h-96v294q0 77 -37.5 116t-105.5 39q-51 0 -89 -20t-58.5 -59t-20.5 -97v-273h-96v742h96v-355l-19 38q26 52 80 81t126 29zM0 601v68h396v-68h-396z" />
    <glyph glyph-name="Itilde" unicode="&#x128;" horiz-adv-x="310" 
d="M105 0v700h100v-700h-100zM225 760q-24 0 -42.5 10t-33.5 23.5t-29 23.5t-28 10q-22 0 -35.5 -16.5t-15.5 -45.5h-54q2 56 28 89t70 33q24 0 43 -10.5t34 -24t28.5 -23.5t27.5 -10q22 0 36 16t15 44h54q-1 -53 -27.5 -86t-70.5 -33z" />
    <glyph glyph-name="itilde" unicode="&#x129;" horiz-adv-x="279" 
d="M91 0v530h96v-530h-96zM199 610q-22 0 -38.5 10t-29.5 23.5t-24 23.5t-23 10q-17 0 -25.5 -16.5t-8.5 -45.5h-54q0 59 22 90.5t61 31.5q23 0 39 -10.5t29 -23.5t24 -23t23 -10q17 0 25.5 16t8.5 43h54q0 -56 -22 -87.5t-61 -31.5z" />
    <glyph glyph-name="Imacron" unicode="&#x12a;" horiz-adv-x="310" 
d="M105 0v700h100v-700h-100zM22 792v60h266v-60h-266z" />
    <glyph glyph-name="imacron" unicode="&#x12b;" horiz-adv-x="279" 
d="M91 0v530h96v-530h-96zM6 642v60h266v-60h-266z" />
    <glyph glyph-name="Ibreve" unicode="&#x12c;" horiz-adv-x="310" 
d="M105 0v700h100v-700h-100zM155 751q-68 0 -114 36.5t-48 99.5h65q2 -37 30 -58.5t67 -21.5t67.5 21.5t29.5 58.5h65q-2 -63 -48 -99.5t-114 -36.5z" />
    <glyph glyph-name="ibreve" unicode="&#x12d;" horiz-adv-x="279" 
d="M91 0v530h96v-530h-96zM139 601q-59 0 -98 36.5t-39 99.5h62q0 -37 20 -58.5t55 -21.5t55 21.5t20 58.5h62q0 -63 -39 -99.5t-98 -36.5z" />
    <glyph glyph-name="Iogonek" unicode="&#x12e;" horiz-adv-x="310" 
d="M105 0v700h100v-700h-100zM178 -224q-45 0 -72.5 26.5t-27.5 70.5q0 39 21 79.5t71 78.5l35 -31q-37 -36 -48 -64.5t-11 -51.5q0 -24 13 -38t31 -14q9 0 17.5 3t16.5 9l17 -48q-24 -20 -63 -20z" />
    <glyph glyph-name="iogonek" unicode="&#x12f;" horiz-adv-x="279" 
d="M91 0v530h96v-530h-96zM139 632q-28 0 -46.5 18t-18.5 44q0 27 18.5 45t46.5 18t46.5 -17.5t18.5 -43.5q0 -27 -18 -45.5t-47 -18.5zM160 -224q-45 0 -72.5 26.5t-27.5 70.5q0 39 21 79.5t71 78.5l35 -31q-37 -36 -48 -64.5t-11 -51.5q0 -24 13 -38t31 -14q9 0 17.5 3
t16.5 9l17 -48q-24 -20 -63 -20z" />
    <glyph glyph-name="Idotaccent" unicode="&#x130;" horiz-adv-x="310" 
d="M105 0v700h100v-700h-100zM155 775q-25 0 -42 17t-17 42t17 42t42 17t42 -17t17 -42t-17 -42t-42 -17z" />
    <glyph glyph-name="dotlessi" unicode="&#x131;" horiz-adv-x="279" 
d="M91 0v530h96v-530h-96z" />
    <glyph glyph-name="IJ" unicode="&#x132;" horiz-adv-x="720" 
d="M327 -8q-71 0 -132.5 19.5t-107.5 51.5l39 80q43 -30 95.5 -46t107.5 -16q92 0 142 54t50 167v398h100v-393q0 -104 -37 -174t-102.5 -105.5t-154.5 -35.5zM99 309v391h100v-391h-100z" />
    <glyph glyph-name="ij" unicode="&#x133;" horiz-adv-x="562" 
d="M91 0v530h96v-530h-96zM139 632q-28 0 -46.5 18t-18.5 44q0 27 18.5 45t46.5 18t46.5 -17.5t18.5 -43.5q0 -27 -18 -45.5t-47 -18.5zM302 -200q-33 0 -63.5 8t-51.5 24l31 74q30 -25 78 -25q38 0 58.5 23.5t20.5 69.5v556h96v-554q0 -81 -43.5 -128.5t-125.5 -47.5z
M423 632q-28 0 -46.5 18t-18.5 44q0 27 18.5 45t46.5 18t46.5 -17.5t18.5 -43.5q0 -27 -18 -45.5t-47 -18.5z" />
    <glyph glyph-name="Jcircumflex" unicode="&#x134;" horiz-adv-x="513" 
d="M195 -8q-62 0 -116 26t-88 75l58 68q29 -40 65.5 -61.5t80.5 -21.5q120 0 120 142v393h-253v87h352v-475q0 -117 -55.5 -175t-163.5 -58zM60 757l133 130h92l133 -130h-87l-132 110h80l-132 -110h-87z" />
    <glyph glyph-name="jcircumflex" unicode="&#x135;" horiz-adv-x="284" 
d="M23 -200q-33 0 -63.5 8t-51.5 24l31 74q30 -25 78 -25q38 0 58.5 23.5t20.5 69.5v556h96v-554q0 -81 -43.5 -128.5t-125.5 -47.5zM-10 607l109 130h90l109 -130h-82l-107 110h70l-107 -110h-82z" />
    <glyph glyph-name="uni0136" unicode="&#x136;" horiz-adv-x="719" 
d="M193 169l-5 122l397 409h114l-307 -324l-56 -62zM105 0v700h100v-700h-100zM601 0l-287 334l67 74l337 -408h-117zM333 -263l33 114l9 -36q-24 0 -37.5 12.5t-13.5 32.5t14 33t37 13q24 0 37.5 -13.5t13.5 -32.5q0 -10 -2.5 -23t-10.5 -28l-30 -72h-50z" />
    <glyph glyph-name="uni0137" unicode="&#x137;" horiz-adv-x="616" 
d="M169 128l2 123l305 279h116l-234 -230l-52 -44zM91 0v742h96v-742h-96zM496 0l-208 258l62 77l264 -335h-118zM271 -263l33 114l9 -36q-24 0 -37.5 12.5t-13.5 32.5t14 33t37 13q24 0 37.5 -13.5t13.5 -32.5q0 -10 -2.5 -23t-10.5 -28l-30 -72h-50z" />
    <glyph glyph-name="kgreenlandic" unicode="&#x138;" horiz-adv-x="606" 
d="M169 128l2 123l305 279h116l-234 -230l-52 -44zM91 0v530h96v-530h-96zM496 0l-208 258l62 77l264 -335h-118z" />
    <glyph glyph-name="Lacute" unicode="&#x139;" horiz-adv-x="594" 
d="M105 0v700h100v-613h379v-87h-479zM80 757l136 130h122l-168 -130h-90z" />
    <glyph glyph-name="lacute" unicode="&#x13a;" horiz-adv-x="279" 
d="M91 0v742h96v-742h-96zM64 819l136 130h122l-168 -130h-90z" />
    <glyph glyph-name="uni013B" unicode="&#x13b;" horiz-adv-x="594" 
d="M105 0v700h100v-613h379v-87h-479zM314 -263l33 114l9 -36q-24 0 -37.5 12.5t-13.5 32.5t14 33t37 13q24 0 37.5 -13.5t13.5 -32.5q0 -10 -2.5 -23t-10.5 -28l-30 -72h-50z" />
    <glyph glyph-name="uni013C" unicode="&#x13c;" horiz-adv-x="279" 
d="M91 0v742h96v-742h-96zM97 -263l33 114l9 -36q-24 0 -37.5 12.5t-13.5 32.5t14 33t37 13q24 0 37.5 -13.5t13.5 -32.5q0 -10 -2.5 -23t-10.5 -28l-30 -72h-50z" />
    <glyph glyph-name="Lcaron" unicode="&#x13d;" horiz-adv-x="594" 
d="M105 0v700h100v-613h379v-87h-479zM438 540v193h79l-12 -193h-67z" />
    <glyph glyph-name="lcaron" unicode="&#x13e;" horiz-adv-x="279" 
d="M91 0v742h96v-742h-96zM276 582v193h79l-12 -193h-67z" />
    <glyph glyph-name="Ldot" unicode="&#x13f;" horiz-adv-x="594" 
d="M105 0v700h100v-613h379v-87h-479zM452 331q-25 0 -43 17.5t-18 44.5t18 44.5t43 17.5t42.5 -17.5t17.5 -44.5t-17.5 -44.5t-42.5 -17.5z" />
    <glyph glyph-name="ldot" unicode="&#x140;" horiz-adv-x="345" 
d="M91 0v742h96v-742h-96zM312 301q-25 0 -41.5 16.5t-16.5 40.5q0 23 16.5 40t41.5 17q24 0 40.5 -17t16.5 -40q0 -24 -16.5 -40.5t-40.5 -16.5z" />
    <glyph glyph-name="Lslash" unicode="&#x141;" horiz-adv-x="601" 
d="M113 0v700h100v-613h379v-87h-479zM52 247l-44 56l316 240l44 -56z" />
    <glyph glyph-name="lslash" unicode="&#x142;" horiz-adv-x="294" 
d="M99 0v742h96v-742h-96zM36 229l-43 57l265 202l43 -58z" />
    <glyph glyph-name="Nacute" unicode="&#x143;" horiz-adv-x="812" 
d="M105 0v700h82l463 -575h-43v575h100v-700h-82l-463 575h43v-575h-100zM330 757l136 130h122l-168 -130h-90z" />
    <glyph glyph-name="nacute" unicode="&#x144;" horiz-adv-x="681" 
d="M374 535q65 0 114.5 -25t77.5 -76t28 -129v-305h-96v294q0 77 -37.5 116t-105.5 39q-51 0 -89 -20t-58.5 -59t-20.5 -97v-273h-96v530h92v-143l-15 38q26 52 80 81t126 29zM268 607l136 130h122l-168 -130h-90z" />
    <glyph glyph-name="uni0145" unicode="&#x145;" horiz-adv-x="812" 
d="M105 0v700h82l463 -575h-43v575h100v-700h-82l-463 575h43v-575h-100zM363 -263l33 114l9 -36q-24 0 -37.5 12.5t-13.5 32.5t14 33t37 13q24 0 37.5 -13.5t13.5 -32.5q0 -10 -2.5 -23t-10.5 -28l-30 -72h-50z" />
    <glyph glyph-name="uni0146" unicode="&#x146;" horiz-adv-x="681" 
d="M374 535q65 0 114.5 -25t77.5 -76t28 -129v-305h-96v294q0 77 -37.5 116t-105.5 39q-51 0 -89 -20t-58.5 -59t-20.5 -97v-273h-96v530h92v-143l-15 38q26 52 80 81t126 29zM301 -263l33 114l9 -36q-24 0 -37.5 12.5t-13.5 32.5t14 33t37 13q24 0 37.5 -13.5t13.5 -32.5
q0 -10 -2.5 -23t-10.5 -28l-30 -72h-50z" />
    <glyph glyph-name="Ncaron" unicode="&#x147;" horiz-adv-x="812" 
d="M105 0v700h82l463 -575h-43v575h100v-700h-82l-463 575h43v-575h-100zM359 757l-133 130h87l132 -109h-80l132 109h87l-133 -130h-92z" />
    <glyph glyph-name="ncaron" unicode="&#x148;" horiz-adv-x="681" 
d="M374 535q65 0 114.5 -25t77.5 -76t28 -129v-305h-96v294q0 77 -37.5 116t-105.5 39q-51 0 -89 -20t-58.5 -59t-20.5 -97v-273h-96v530h92v-143l-15 38q26 52 80 81t126 29zM297 607l-133 130h87l132 -109h-80l132 109h87l-133 -130h-92z" />
    <glyph glyph-name="napostrophe" unicode="&#x149;" horiz-adv-x="728" 
d="M7 469l50 203l13 -58q-29 0 -48.5 18t-19.5 48q0 31 19.5 49.5t47.5 18.5q29 0 47 -19.5t18 -48.5q0 -9 -1 -18.5t-4.5 -21.5t-10.5 -31l-48 -140h-63zM421 535q65 0 114.5 -25t77.5 -76t28 -129v-305h-96v294q0 77 -37.5 116t-105.5 39q-51 0 -89 -20t-58.5 -59
t-20.5 -97v-273h-96v530h92v-143l-15 38q26 52 80 81t126 29z" />
    <glyph glyph-name="Eng" unicode="&#x14a;" horiz-adv-x="812" 
d="M105 0v700h82l463 -575l-25 -125l-463 575h43v-575h-100zM490 -200q-53 0 -100 20.5t-80 58.5l49 72q24 -30 57 -47.5t74 -17.5q117 0 117 143v671h100v-658q0 -123 -55 -182.5t-162 -59.5z" />
    <glyph glyph-name="eng" unicode="&#x14b;" horiz-adv-x="681" 
d="M374 535q65 0 114.5 -25t77.5 -76t28 -129v-329q0 -81 -43.5 -128.5t-125.5 -47.5q-33 0 -63.5 8t-51.5 24l31 74q30 -25 78 -25q38 0 58.5 23.5t20.5 69.5v320q0 77 -37.5 116t-105.5 39q-51 0 -89 -20t-58.5 -59t-20.5 -97v-273h-96v530h92v-143l-15 38q26 52 80 81
t126 29z" />
    <glyph glyph-name="Omacron" unicode="&#x14c;" horiz-adv-x="840" 
d="M421 -8q-80 0 -148.5 27t-118.5 75.5t-78 113.5t-28 142t28 142t78 113.5t118 75.5t149 27q80 0 147.5 -26.5t118 -75t78 -113.5t27.5 -143t-27.5 -143t-78 -113.5t-118 -75t-147.5 -26.5zM421 81q58 0 107.5 20t86 56.5t57 85.5t20.5 107t-20.5 107t-57 85.5t-86 56.5
t-107.5 20q-59 0 -108.5 -20t-86.5 -56.5t-57.5 -85.5t-20.5 -107t20.5 -107t57.5 -85.5t86.5 -56.5t108.5 -20zM258 792v60h326v-60h-326z" />
    <glyph glyph-name="omacron" unicode="&#x14d;" horiz-adv-x="635" 
d="M318 -6q-80 0 -142 35t-98 96.5t-36 139.5q0 79 36 140t98 95.5t142 34.5q79 0 141.5 -34.5t98 -95t35.5 -140.5q0 -79 -35.5 -140t-98 -96t-141.5 -35zM318 78q51 0 91.5 23t63.5 65.5t23 98.5q0 57 -23 98.5t-63.5 64.5t-91.5 23t-91 -23t-64 -64.5t-24 -98.5
q0 -56 24 -98.5t64 -65.5t91 -23zM154 642v60h326v-60h-326z" />
    <glyph glyph-name="Obreve" unicode="&#x14e;" horiz-adv-x="840" 
d="M421 -8q-80 0 -148.5 27t-118.5 75.5t-78 113.5t-28 142t28 142t78 113.5t118 75.5t149 27q80 0 147.5 -26.5t118 -75t78 -113.5t27.5 -143t-27.5 -143t-78 -113.5t-118 -75t-147.5 -26.5zM421 81q58 0 107.5 20t86 56.5t57 85.5t20.5 107t-20.5 107t-57 85.5t-86 56.5
t-107.5 20q-59 0 -108.5 -20t-86.5 -56.5t-57.5 -85.5t-20.5 -107t20.5 -107t57.5 -85.5t86.5 -56.5t108.5 -20zM421 751q-68 0 -114 36.5t-48 99.5h65q2 -37 30 -58.5t67 -21.5t67.5 21.5t29.5 58.5h65q-2 -63 -48 -99.5t-114 -36.5z" />
    <glyph glyph-name="obreve" unicode="&#x14f;" horiz-adv-x="635" 
d="M318 -6q-80 0 -142 35t-98 96.5t-36 139.5q0 79 36 140t98 95.5t142 34.5q79 0 141.5 -34.5t98 -95t35.5 -140.5q0 -79 -35.5 -140t-98 -96t-141.5 -35zM318 78q51 0 91.5 23t63.5 65.5t23 98.5q0 57 -23 98.5t-63.5 64.5t-91.5 23t-91 -23t-64 -64.5t-24 -98.5
q0 -56 24 -98.5t64 -65.5t91 -23zM317 601q-68 0 -114 36.5t-48 99.5h65q2 -37 30 -58.5t67 -21.5t67.5 21.5t29.5 58.5h65q-2 -63 -48 -99.5t-114 -36.5z" />
    <glyph glyph-name="Ohungarumlaut" unicode="&#x150;" horiz-adv-x="840" 
d="M421 -8q-80 0 -148.5 27t-118.5 75.5t-78 113.5t-28 142t28 142t78 113.5t118 75.5t149 27q80 0 147.5 -26.5t118 -75t78 -113.5t27.5 -143t-27.5 -143t-78 -113.5t-118 -75t-147.5 -26.5zM421 81q58 0 107.5 20t86 56.5t57 85.5t20.5 107t-20.5 107t-57 85.5t-86 56.5
t-107.5 20q-59 0 -108.5 -20t-86.5 -56.5t-57.5 -85.5t-20.5 -107t20.5 -107t57.5 -85.5t86.5 -56.5t108.5 -20zM468 757l89 130h101l-109 -130h-81zM293 757l90 130h102l-111 -130h-81z" />
    <glyph glyph-name="ohungarumlaut" unicode="&#x151;" horiz-adv-x="635" 
d="M318 -6q-80 0 -142 35t-98 96.5t-36 139.5q0 79 36 140t98 95.5t142 34.5q79 0 141.5 -34.5t98 -95t35.5 -140.5q0 -79 -35.5 -140t-98 -96t-141.5 -35zM318 78q51 0 91.5 23t63.5 65.5t23 98.5q0 57 -23 98.5t-63.5 64.5t-91.5 23t-91 -23t-64 -64.5t-24 -98.5
q0 -56 24 -98.5t64 -65.5t91 -23zM364 607l89 130h101l-109 -130h-81zM189 607l90 130h102l-111 -130h-81z" />
    <glyph glyph-name="OE" unicode="&#x152;" horiz-adv-x="1126" 
d="M426 0q-112 0 -197 44t-133 122.5t-48 182.5t48 183.5t133 123.5t197 44h160v-87h-155q-85 0 -149 -33t-99 -92.5t-35 -138.5q0 -78 35 -137t99 -92t149 -33h155v-87h-160zM652 398h360v-85h-360v85zM660 87h409v-87h-508v700h494v-87h-395v-526z" />
    <glyph glyph-name="oe" unicode="&#x153;" horiz-adv-x="1067" 
d="M318 -6q-80 0 -142 35t-98 96t-36 140t36 140t98 95.5t142 34.5q79 0 139 -34.5t93.5 -95.5t33.5 -140t-33.5 -140t-93.5 -96t-139 -35zM318 78q51 0 91.5 23t63.5 65.5t23 98.5q0 57 -23 98.5t-63.5 64.5t-91.5 23t-91 -23t-64 -64.5t-24 -98.5q0 -56 24 -98.5t64 -65.5
t91 -23zM781 -6q-84 0 -147 35t-97 96t-34 140t33 140t91.5 95.5t134.5 34.5q77 0 136 -34t92.5 -95.5t33.5 -143.5v-14t-1 -15h-451v69h400l-38 -24q1 51 -21.5 91t-61 62.5t-89.5 22.5q-50 0 -88.5 -22.5t-60.5 -63t-22 -92.5v-16q0 -53 24 -94.5t68 -64.5t101 -23
q47 0 86 16t67 48l53 -62q-36 -42 -89 -64t-120 -22z" />
    <glyph glyph-name="Racute" unicode="&#x154;" horiz-adv-x="727" 
d="M105 0v700h273q92 0 157 -29t100 -84t35 -131t-35 -130.5t-100 -83.5t-157 -29h-218l45 46v-259h-100zM573 0l-178 254h107l180 -254h-109zM205 249l-45 49h215q96 0 145.5 41.5t49.5 116.5t-49.5 116t-145.5 41h-215l45 50v-414zM296 757l136 130h122l-168 -130h-90z
" />
    <glyph glyph-name="racute" unicode="&#x155;" horiz-adv-x="410" 
d="M91 0v530h92v-144l-9 36q22 55 74 84t128 29v-93q-6 1 -11.5 1h-10.5q-77 0 -122 -46t-45 -133v-264h-96zM159 607l136 130h122l-168 -130h-90z" />
    <glyph glyph-name="uni0156" unicode="&#x156;" horiz-adv-x="727" 
d="M105 0v700h273q92 0 157 -29t100 -84t35 -131t-35 -130.5t-100 -83.5t-157 -29h-218l45 46v-259h-100zM573 0l-178 254h107l180 -254h-109zM205 249l-45 49h215q96 0 145.5 41.5t49.5 116.5t-49.5 116t-145.5 41h-215l45 50v-414zM329 -263l33 114l9 -36
q-24 0 -37.5 12.5t-13.5 32.5t14 33t37 13q24 0 37.5 -13.5t13.5 -32.5q0 -10 -2.5 -23t-10.5 -28l-30 -72h-50z" />
    <glyph glyph-name="uni0157" unicode="&#x157;" horiz-adv-x="410" 
d="M91 0v530h92v-144l-9 36q22 55 74 84t128 29v-93q-6 1 -11.5 1h-10.5q-77 0 -122 -46t-45 -133v-264h-96zM97 -263l33 114l9 -36q-24 0 -37.5 12.5t-13.5 32.5t14 33t37 13q24 0 37.5 -13.5t13.5 -32.5q0 -10 -2.5 -23t-10.5 -28l-30 -72h-50z" />
    <glyph glyph-name="Rcaron" unicode="&#x158;" horiz-adv-x="727" 
d="M105 0v700h273q92 0 157 -29t100 -84t35 -131t-35 -130.5t-100 -83.5t-157 -29h-218l45 46v-259h-100zM573 0l-178 254h107l180 -254h-109zM205 249l-45 49h215q96 0 145.5 41.5t49.5 116.5t-49.5 116t-145.5 41h-215l45 50v-414zM325 757l-133 130h87l132 -109h-80
l132 109h87l-133 -130h-92z" />
    <glyph glyph-name="rcaron" unicode="&#x159;" horiz-adv-x="410" 
d="M91 0v530h92v-144l-9 36q22 55 74 84t128 29v-93q-6 1 -11.5 1h-10.5q-77 0 -122 -46t-45 -133v-264h-96zM188 607l-133 130h87l132 -109h-80l132 109h87l-133 -130h-92z" />
    <glyph glyph-name="Sacute" unicode="&#x15a;" horiz-adv-x="621" 
d="M309 -8q-80 0 -153 24.5t-115 63.5l37 78q40 -35 102 -58t129 -23q61 0 99 14t56 38.5t18 55.5q0 36 -23.5 58t-61 35.5t-82.5 23.5t-90.5 23.5t-83 34.5t-60.5 56.5t-23 91.5q0 54 28.5 99.5t88 73t151.5 27.5q61 0 121 -16t104 -46l-33 -80q-45 30 -95 43.5t-97 13.5
q-59 0 -97 -15t-55.5 -40t-17.5 -56q0 -37 23.5 -59t61 -35t82.5 -23.5t90.5 -23.5t83 -34t60.5 -56t23 -90q0 -53 -29 -98.5t-89.5 -73t-152.5 -27.5zM247 757l136 130h122l-168 -130h-90z" />
    <glyph glyph-name="sacute" unicode="&#x15b;" horiz-adv-x="501" 
d="M243 -6q-66 0 -125.5 18t-93.5 44l40 76q34 -23 84 -39t102 -16q67 0 96.5 19t29.5 53q0 25 -18 39t-47.5 21t-65.5 12.5t-72 14t-66 24t-48 43t-18 73.5q0 48 27 84t76.5 55.5t117.5 19.5q52 0 105.5 -12.5t87.5 -35.5l-41 -76q-36 24 -75 33t-78 9q-63 0 -94 -20.5
t-31 -52.5q0 -27 18.5 -41.5t48 -22.5t65.5 -13.5t72 -14t65.5 -23.5t48 -42t18.5 -72q0 -48 -28 -83t-79 -54.5t-122 -19.5zM173 607l136 130h122l-168 -130h-90z" />
    <glyph glyph-name="Scircumflex" unicode="&#x15c;" horiz-adv-x="621" 
d="M309 -8q-80 0 -153 24.5t-115 63.5l37 78q40 -35 102 -58t129 -23q61 0 99 14t56 38.5t18 55.5q0 36 -23.5 58t-61 35.5t-82.5 23.5t-90.5 23.5t-83 34.5t-60.5 56.5t-23 91.5q0 54 28.5 99.5t88 73t151.5 27.5q61 0 121 -16t104 -46l-33 -80q-45 30 -95 43.5t-97 13.5
q-59 0 -97 -15t-55.5 -40t-17.5 -56q0 -37 23.5 -59t61 -35t82.5 -23.5t90.5 -23.5t83 -34t60.5 -56t23 -90q0 -53 -29 -98.5t-89.5 -73t-152.5 -27.5zM143 757l133 130h92l133 -130h-87l-132 110h80l-132 -110h-87z" />
    <glyph glyph-name="scircumflex" unicode="&#x15d;" horiz-adv-x="501" 
d="M243 -6q-66 0 -125.5 18t-93.5 44l40 76q34 -23 84 -39t102 -16q67 0 96.5 19t29.5 53q0 25 -18 39t-47.5 21t-65.5 12.5t-72 14t-66 24t-48 43t-18 73.5q0 48 27 84t76.5 55.5t117.5 19.5q52 0 105.5 -12.5t87.5 -35.5l-41 -76q-36 24 -75 33t-78 9q-63 0 -94 -20.5
t-31 -52.5q0 -27 18.5 -41.5t48 -22.5t65.5 -13.5t72 -14t65.5 -23.5t48 -42t18.5 -72q0 -48 -28 -83t-79 -54.5t-122 -19.5zM69 607l133 130h92l133 -130h-87l-132 110h80l-132 -110h-87z" />
    <glyph glyph-name="Scedilla" unicode="&#x15e;" horiz-adv-x="621" 
d="M309 -8q-80 0 -153 24.5t-115 63.5l37 78q40 -35 102 -58t129 -23q61 0 99 14t56 38.5t18 55.5q0 36 -23.5 58t-61 35.5t-82.5 23.5t-90.5 23.5t-83 34.5t-60.5 56.5t-23 91.5q0 54 28.5 99.5t88 73t151.5 27.5q61 0 121 -16t104 -46l-33 -80q-45 30 -95 43.5t-97 13.5
q-59 0 -97 -15t-55.5 -40t-17.5 -56q0 -37 23.5 -59t61 -35t82.5 -23.5t90.5 -23.5t83 -34t60.5 -56t23 -90q0 -53 -29 -98.5t-89.5 -73t-152.5 -27.5zM297 -224q-26 0 -48 5.5t-41 16.5l21 49q16 -9 32.5 -13t35.5 -4q29 0 42.5 10.5t13.5 29.5q0 18 -13.5 28.5t-43.5 10.5
h-27l25 98h55l-15 -57q43 -4 65 -27t22 -56q0 -42 -34 -66.5t-90 -24.5z" />
    <glyph glyph-name="scedilla" unicode="&#x15f;" horiz-adv-x="501" 
d="M243 -6q-66 0 -125.5 18t-93.5 44l40 76q34 -23 84 -39t102 -16q67 0 96.5 19t29.5 53q0 25 -18 39t-47.5 21t-65.5 12.5t-72 14t-66 24t-48 43t-18 73.5q0 48 27 84t76.5 55.5t117.5 19.5q52 0 105.5 -12.5t87.5 -35.5l-41 -76q-36 24 -75 33t-78 9q-63 0 -94 -20.5
t-31 -52.5q0 -27 18.5 -41.5t48 -22.5t65.5 -13.5t72 -14t65.5 -23.5t48 -42t18.5 -72q0 -48 -28 -83t-79 -54.5t-122 -19.5zM223 -224q-26 0 -48 5.5t-41 16.5l21 49q16 -9 32.5 -13t35.5 -4q29 0 42.5 10.5t13.5 29.5q0 18 -13.5 28.5t-43.5 10.5h-27l25 98h55l-15 -57
q43 -4 65 -27t22 -56q0 -42 -34 -66.5t-90 -24.5z" />
    <glyph glyph-name="Scaron" unicode="&#x160;" horiz-adv-x="621" 
d="M309 -8q-80 0 -153 24.5t-115 63.5l37 78q40 -35 102 -58t129 -23q61 0 99 14t56 38.5t18 55.5q0 36 -23.5 58t-61 35.5t-82.5 23.5t-90.5 23.5t-83 34.5t-60.5 56.5t-23 91.5q0 54 28.5 99.5t88 73t151.5 27.5q61 0 121 -16t104 -46l-33 -80q-45 30 -95 43.5t-97 13.5
q-59 0 -97 -15t-55.5 -40t-17.5 -56q0 -37 23.5 -59t61 -35t82.5 -23.5t90.5 -23.5t83 -34t60.5 -56t23 -90q0 -53 -29 -98.5t-89.5 -73t-152.5 -27.5zM276 757l-133 130h87l132 -109h-80l132 109h87l-133 -130h-92z" />
    <glyph glyph-name="scaron" unicode="&#x161;" horiz-adv-x="501" 
d="M243 -6q-66 0 -125.5 18t-93.5 44l40 76q34 -23 84 -39t102 -16q67 0 96.5 19t29.5 53q0 25 -18 39t-47.5 21t-65.5 12.5t-72 14t-66 24t-48 43t-18 73.5q0 48 27 84t76.5 55.5t117.5 19.5q52 0 105.5 -12.5t87.5 -35.5l-41 -76q-36 24 -75 33t-78 9q-63 0 -94 -20.5
t-31 -52.5q0 -27 18.5 -41.5t48 -22.5t65.5 -13.5t72 -14t65.5 -23.5t48 -42t18.5 -72q0 -48 -28 -83t-79 -54.5t-122 -19.5zM202 607l-133 130h87l132 -109h-80l132 109h87l-133 -130h-92z" />
    <glyph glyph-name="uni0162" unicode="&#x162;" horiz-adv-x="587" 
d="M244 0v613h-240v87h579v-87h-240v-613h-99zM268 -224q-26 0 -48 5.5t-41 16.5l21 49q16 -9 32.5 -13t35.5 -4q29 0 42.5 10.5t13.5 29.5q0 18 -13.5 28.5t-43.5 10.5h-27l25 98h55l-15 -57q43 -4 65 -27t22 -56q0 -42 -34 -66.5t-90 -24.5z" />
    <glyph glyph-name="uni0163" unicode="&#x163;" horiz-adv-x="414" 
d="M273 -6q-80 0 -124 43t-44 123v486h96v-482q0 -43 21.5 -66t61.5 -23q45 0 75 25l30 -69q-22 -19 -52.5 -28t-63.5 -9zM15 451v79h338v-79h-338zM228 -224q-26 0 -48 5.5t-41 16.5l21 49q16 -9 32.5 -13t35.5 -4q29 0 42.5 10.5t13.5 29.5q0 18 -13.5 28.5t-43.5 10.5
h-27l25 98h55l-15 -57q43 -4 65 -27t22 -56q0 -42 -34 -66.5t-90 -24.5z" />
    <glyph glyph-name="Tcaron" unicode="&#x164;" horiz-adv-x="587" 
d="M244 0v613h-240v87h579v-87h-240v-613h-99zM247 757l-133 130h87l132 -109h-80l132 109h87l-133 -130h-92z" />
    <glyph glyph-name="tcaron" unicode="&#x165;" horiz-adv-x="414" 
d="M273 -6q-80 0 -124 43t-44 123v486h96v-482q0 -43 21.5 -66t61.5 -23q45 0 75 25l30 -69q-22 -19 -52.5 -28t-63.5 -9zM15 451v79h338v-79h-338zM285 596v169h76l-11 -169h-65z" />
    <glyph glyph-name="Tbar" unicode="&#x166;" horiz-adv-x="587" 
d="M244 0v613h-240v87h579v-87h-240v-613h-99zM93 300v79h400v-79h-400z" />
    <glyph glyph-name="tbar" unicode="&#x167;" horiz-adv-x="424" 
d="M278 -6q-80 0 -124 43t-44 123v486h96v-482q0 -43 21.5 -66t61.5 -23q45 0 75 25l30 -69q-22 -19 -52.5 -28t-63.5 -9zM20 451v79h338v-79h-338zM32 255v67h315v-67h-315z" />
    <glyph glyph-name="Utilde" unicode="&#x168;" horiz-adv-x="791" 
d="M395 -8q-138 0 -217 79t-79 231v398h100v-394q0 -117 51.5 -171t145.5 -54q95 0 146.5 54t51.5 171v394h97v-398q0 -152 -78.5 -231t-217.5 -79zM466 760q-24 0 -42.5 10t-33.5 23.5t-29 23.5t-28 10q-22 0 -35.5 -16.5t-15.5 -45.5h-54q2 56 28 89t70 33q24 0 43 -10.5
t34 -24t28.5 -23.5t27.5 -10q22 0 36 16t15 44h54q-1 -53 -27.5 -86t-70.5 -33z" />
    <glyph glyph-name="utilde" unicode="&#x169;" horiz-adv-x="677" 
d="M314 -6q-68 0 -119.5 25t-80 76.5t-28.5 129.5v305h96v-294q0 -78 37.5 -117t105.5 -39q50 0 87 20.5t57 60t20 95.5v274h96v-530h-91v143l15 -38q-26 -53 -78 -82t-117 -29zM406 610q-24 0 -42.5 10t-33.5 23.5t-29 23.5t-28 10q-22 0 -35.5 -16.5t-15.5 -45.5h-54
q2 56 28 89t70 33q24 0 43 -10.5t34 -24t28.5 -23.5t27.5 -10q22 0 36 16t15 44h54q-1 -53 -27.5 -86t-70.5 -33z" />
    <glyph glyph-name="Umacron" unicode="&#x16a;" horiz-adv-x="791" 
d="M395 -8q-138 0 -217 79t-79 231v398h100v-394q0 -117 51.5 -171t145.5 -54q95 0 146.5 54t51.5 171v394h97v-398q0 -152 -78.5 -231t-217.5 -79zM233 792v60h326v-60h-326z" />
    <glyph glyph-name="umacron" unicode="&#x16b;" horiz-adv-x="677" 
d="M314 -6q-68 0 -119.5 25t-80 76.5t-28.5 129.5v305h96v-294q0 -78 37.5 -117t105.5 -39q50 0 87 20.5t57 60t20 95.5v274h96v-530h-91v143l15 -38q-26 -53 -78 -82t-117 -29zM173 642v60h326v-60h-326z" />
    <glyph glyph-name="Ubreve" unicode="&#x16c;" horiz-adv-x="791" 
d="M395 -8q-138 0 -217 79t-79 231v398h100v-394q0 -117 51.5 -171t145.5 -54q95 0 146.5 54t51.5 171v394h97v-398q0 -152 -78.5 -231t-217.5 -79zM396 751q-68 0 -114 36.5t-48 99.5h65q2 -37 30 -58.5t67 -21.5t67.5 21.5t29.5 58.5h65q-2 -63 -48 -99.5t-114 -36.5z" />
    <glyph glyph-name="ubreve" unicode="&#x16d;" horiz-adv-x="677" 
d="M314 -6q-68 0 -119.5 25t-80 76.5t-28.5 129.5v305h96v-294q0 -78 37.5 -117t105.5 -39q50 0 87 20.5t57 60t20 95.5v274h96v-530h-91v143l15 -38q-26 -53 -78 -82t-117 -29zM336 601q-68 0 -114 36.5t-48 99.5h65q2 -37 30 -58.5t67 -21.5t67.5 21.5t29.5 58.5h65
q-2 -63 -48 -99.5t-114 -36.5z" />
    <glyph glyph-name="Uring" unicode="&#x16e;" horiz-adv-x="791" 
d="M395 -8q-138 0 -217 79t-79 231v398h100v-394q0 -117 51.5 -171t145.5 -54q95 0 146.5 54t51.5 171v394h97v-398q0 -152 -78.5 -231t-217.5 -79zM395 764q-31 0 -56 15t-39.5 39t-14.5 54t14.5 55t39.5 40t56 15q32 0 57 -15t39.5 -40t14.5 -55t-14.5 -54t-39.5 -39
t-57 -15zM395 806q29 0 47.5 19t18.5 47q0 29 -18.5 48t-47.5 19q-28 0 -46.5 -18.5t-18.5 -48.5q0 -28 18 -47t47 -19z" />
    <glyph glyph-name="uring" unicode="&#x16f;" horiz-adv-x="677" 
d="M314 -6q-68 0 -119.5 25t-80 76.5t-28.5 129.5v305h96v-294q0 -78 37.5 -117t105.5 -39q50 0 87 20.5t57 60t20 95.5v274h96v-530h-91v143l15 -38q-26 -53 -78 -82t-117 -29zM335 594q-31 0 -56 15t-39.5 39t-14.5 54t14.5 55t39.5 40t56 15q32 0 57 -15t39.5 -40
t14.5 -55t-14.5 -54t-39.5 -39t-57 -15zM335 636q29 0 47.5 19t18.5 47q0 29 -18.5 48t-47.5 19q-28 0 -46.5 -18.5t-18.5 -48.5q0 -28 18 -47t47 -19z" />
    <glyph glyph-name="Uhungarumlaut" unicode="&#x170;" horiz-adv-x="791" 
d="M395 -8q-138 0 -217 79t-79 231v398h100v-394q0 -117 51.5 -171t145.5 -54q95 0 146.5 54t51.5 171v394h97v-398q0 -152 -78.5 -231t-217.5 -79zM443 757l89 130h101l-109 -130h-81zM268 757l90 130h102l-111 -130h-81z" />
    <glyph glyph-name="uhungarumlaut" unicode="&#x171;" horiz-adv-x="677" 
d="M314 -6q-68 0 -119.5 25t-80 76.5t-28.5 129.5v305h96v-294q0 -78 37.5 -117t105.5 -39q50 0 87 20.5t57 60t20 95.5v274h96v-530h-91v143l15 -38q-26 -53 -78 -82t-117 -29zM383 607l89 130h101l-109 -130h-81zM208 607l90 130h102l-111 -130h-81z" />
    <glyph glyph-name="Uogonek" unicode="&#x172;" horiz-adv-x="791" 
d="M594 700h97v-398q0 -122 -49 -193t-132 -101q-59 -21 -90 -42.5t-42.5 -42t-11.5 -39.5q0 -25 17.5 -38.5t44.5 -13.5q16 0 32.5 5t28.5 12l19 -49q-19 -11 -42 -17.5t-48 -6.5q-56 0 -88 28t-32 73q0 27 13.5 54.5t44.5 53.5t85 47l-3 -38q-10 -1 -21 -1.5t-22 -0.5
q-138 0 -217 79t-79 231v398h100v-394q0 -117 51.5 -171t145.5 -54q95 0 146.5 54t51.5 171v394z" />
    <glyph glyph-name="uogonek" unicode="&#x173;" horiz-adv-x="677" 
d="M314 -6q-68 0 -119.5 25t-80 76.5t-28.5 129.5v305h96v-294q0 -78 37.5 -117t105.5 -39q50 0 87 20.5t57 60t20 95.5v274h96v-530h-91v143l15 -38q-26 -53 -78 -82t-117 -29zM517 -224q-56 0 -88 28t-32 73q0 27 13.5 54t45.5 53t84 48l45 -32q-44 -20 -70 -39t-37.5 -38
t-11.5 -39q0 -25 17.5 -38.5t43.5 -13.5q17 0 33.5 5t28.5 12l18 -49q-18 -11 -41.5 -17.5t-48.5 -6.5z" />
    <glyph glyph-name="Wcircumflex" unicode="&#x174;" horiz-adv-x="1126" 
d="M266 0l-234 700h103l215 -646h-52l223 646h92l218 -646h-50l218 646h95l-234 -700h-105l-204 599h27l-205 -599h-107zM385 757l133 130h92l133 -130h-87l-132 110h80l-132 -110h-87z" />
    <glyph glyph-name="wcircumflex" unicode="&#x175;" horiz-adv-x="899" 
d="M203 0l-197 530h91l175 -480h-43l182 480h81l178 -480h-42l179 480h86l-198 -530h-92l-167 438h28l-169 -438h-92zM268 605l133 130h92l133 -130h-87l-132 110h80l-132 -110h-87z" />
    <glyph glyph-name="Ycircumflex" unicode="&#x176;" horiz-adv-x="647" 
d="M274 0v268l23 -62l-301 494h107l253 -417h-58l254 417h99l-300 -494l22 62v-268h-99zM145 757l133 130h92l133 -130h-87l-132 110h80l-132 -110h-87z" />
    <glyph glyph-name="ycircumflex" unicode="&#x177;" horiz-adv-x="559" 
d="M114 -200q-38 0 -74 12.5t-62 36.5l41 72q20 -19 44 -29t51 -10q35 0 58 18t43 64l33 73l10 12l208 481h94l-257 -583q-23 -56 -51.5 -88t-62.5 -45.5t-75 -13.5zM240 -17l-242 547h100l206 -472zM87 607l133 130h92l133 -130h-87l-132 110h80l-132 -110h-87z" />
    <glyph glyph-name="Ydieresis" unicode="&#x178;" horiz-adv-x="647" 
d="M274 0v268l23 -62l-301 494h107l253 -417h-58l254 417h99l-300 -494l22 62v-268h-99zM417 774q-21 0 -36 14.5t-15 36.5q0 23 15 37.5t36 14.5t36 -14.5t15 -37.5q0 -22 -15 -36.5t-36 -14.5zM231 774q-21 0 -36 14.5t-15 36.5q0 23 15 37.5t36 14.5t36 -14.5t15 -37.5
q0 -22 -15 -36.5t-36 -14.5z" />
    <glyph glyph-name="Zacute" unicode="&#x179;" horiz-adv-x="657" 
d="M43 0v68l471 584l11 -39h-475v87h565v-68l-469 -584l-12 39h494v-87h-585zM261 757l136 130h122l-168 -130h-90z" />
    <glyph glyph-name="zacute" unicode="&#x17a;" horiz-adv-x="521" 
d="M40 0v62l340 422l19 -33h-353v79h430v-63l-340 -421l-22 33h370v-79h-444zM187 607l136 130h122l-168 -130h-90z" />
    <glyph glyph-name="Zdotaccent" unicode="&#x17b;" horiz-adv-x="657" 
d="M43 0v68l471 584l11 -39h-475v87h565v-68l-469 -584l-12 39h494v-87h-585zM336 775q-25 0 -42 17t-17 42t17 42t42 17t42 -17t17 -42t-17 -42t-42 -17z" />
    <glyph glyph-name="zdotaccent" unicode="&#x17c;" horiz-adv-x="521" 
d="M40 0v62l340 422l19 -33h-353v79h430v-63l-340 -421l-22 33h370v-79h-444zM262 625q-25 0 -42 17t-17 42t17 42t42 17t42 -17t17 -42t-17 -42t-42 -17z" />
    <glyph glyph-name="Zcaron" unicode="&#x17d;" horiz-adv-x="657" 
d="M43 0v68l471 584l11 -39h-475v87h565v-68l-469 -584l-12 39h494v-87h-585zM290 757l-133 130h87l132 -109h-80l132 109h87l-133 -130h-92z" />
    <glyph glyph-name="zcaron" unicode="&#x17e;" horiz-adv-x="521" 
d="M40 0v62l340 422l19 -33h-353v79h430v-63l-340 -421l-22 33h370v-79h-444zM216 607l-133 130h87l132 -109h-80l132 109h87l-133 -130h-92z" />
    <glyph glyph-name="longs" unicode="&#x17f;" horiz-adv-x="306" 
d="M115 0v577q0 78 45.5 124.5t129.5 46.5q32 0 60 -7.5t48 -23.5l-29 -73q-15 12 -34 18.5t-40 6.5q-41 0 -62.5 -23.5t-21.5 -69.5v-576h-96zM25 451v79h139v-79h-139z" />
    <glyph glyph-name="uni018F" unicode="&#x18f;" horiz-adv-x="817" 
d="M409 -8q-78 0 -144 27t-114.5 75.5t-75.5 115t-27 144.5v28h632v-85h-565l32 53q0 -61 19 -111t54 -85.5t83 -55.5t106 -20t105.5 19.5t82 55t53.5 84.5t19 108v9q0 57 -20.5 105.5t-57 84t-85 55.5t-104.5 20q-41 0 -80.5 -9t-75 -27t-64.5 -46l-60 69q33 33 76.5 55.5
t95.5 34.5t109 12q80 0 146.5 -26.5t116 -75t76.5 -113.5t27 -142t-27 -142.5t-76 -114t-114.5 -75.5t-142.5 -27z" />
    <glyph glyph-name="florin" unicode="&#x192;" horiz-adv-x="449" 
d="M21 -200q-34 0 -64 8.5t-49 24.5l36 73q29 -25 73 -25q39 0 63.5 23.5t29.5 69.5l75 603q9 78 58.5 124.5t131.5 46.5q31 0 61 -8t48 -25l-37 -73q-13 12 -31 18.5t-39 6.5q-42 0 -67.5 -23.5t-31.5 -69.5l-9 -69l-2 -44l-61 -490q-10 -78 -58 -124.5t-127 -46.5zM77 438
l10 79h338l-9 -79h-339z" />
    <glyph glyph-name="Ohorn" unicode="&#x1a0;" horiz-adv-x="840" 
d="M421 -8q-80 0 -148.5 27t-118.5 75.5t-78 113.5t-28 142q0 78 28 143t78.5 113.5t119.5 75t150 26.5q60 0 105 -7t87 -7q46 0 70.5 18t24.5 55q0 18 -6 33.5t-14 28.5l60 24q13 -19 20.5 -42t7.5 -47q0 -63 -43.5 -98t-123.5 -35q-29 0 -61.5 3.5t-61.5 7.5l125 15
q53 -27 93 -73t62.5 -105.5t22.5 -128.5q0 -78 -27.5 -143t-78 -113.5t-118 -75t-147.5 -26.5zM421 81q58 0 107.5 20.5t86 56.5t57 85t20.5 107q0 57 -20.5 106.5t-57 85.5t-86 56.5t-107.5 20.5q-59 0 -108.5 -20t-86.5 -56.5t-57.5 -85.5t-20.5 -107q0 -57 20.5 -106
t57.5 -86t86.5 -57t108.5 -20z" />
    <glyph glyph-name="ohorn" unicode="&#x1a1;" horiz-adv-x="635" 
d="M318 -6q-80 0 -142 35t-98 96t-36 140t36 140t98.5 95.5t142.5 34.5q27 0 45.5 -1.5t36 -3t39.5 -1.5q39 0 57.5 19.5t18.5 47.5q0 19 -6 34.5t-15 28.5l60 23q13 -18 21 -41t8 -48q0 -38 -18 -67t-51.5 -45t-81.5 -16q-16 0 -32 1.5t-34 4.5l55 45q77 -28 124 -94.5
t47 -156.5q0 -79 -35.5 -140t-98 -96t-141.5 -35zM318 78q50 0 90.5 23t64 65.5t23.5 98.5q0 57 -23 98.5t-63.5 64.5t-91.5 23t-91 -23t-64 -64.5t-24 -98.5q0 -56 24 -98.5t64 -65.5t91 -23z" />
    <glyph glyph-name="Uhorn" unicode="&#x1af;" horiz-adv-x="798" 
d="M395 -8q-138 0 -217 79t-79 231v398h100v-394q0 -117 51.5 -171t145.5 -54q95 0 146.5 54t51.5 171v394h97v-398q0 -152 -78.5 -231t-217.5 -79zM642 627v73h18q33 0 48.5 18.5t15.5 46.5q0 19 -5.5 35t-14.5 28l61 23q14 -17 21 -40t7 -49q0 -60 -35 -97.5t-98 -37.5
h-18z" />
    <glyph glyph-name="uhorn" unicode="&#x1b0;" horiz-adv-x="685" 
d="M314 -6q-68 0 -119.5 25t-80 76.5t-28.5 129.5v305h96v-294q0 -78 37.5 -117t105.5 -39q50 0 87 20.5t57 60t20 95.5v274h96v-530h-91v143l15 -38q-26 -53 -78 -82t-117 -29zM520 457v73h18q33 0 48.5 18.5t15.5 46.5q0 19 -5.5 35t-14.5 28l61 23q14 -17 21 -40t7 -49
q0 -60 -35 -97.5t-98 -37.5h-18z" />
    <glyph glyph-name="uni01B7" unicode="&#x1b7;" horiz-adv-x="623" 
d="M297 -8q-80 0 -151.5 23t-114.5 61l37 79q37 -33 97 -54.5t130 -21.5q85 0 131.5 34t46.5 93q0 56 -45 89t-140 33h-58v69l226 256l9 -38h-407v85h483v-68l-225 -255l-43 29h33q90 0 149 -25t89 -70.5t30 -104.5t-30.5 -108t-91.5 -77.5t-155 -28.5z" />
    <glyph glyph-name="uni01C4" unicode="&#x1c4;" horiz-adv-x="1454" 
d="M105 0v700h295q112 0 197.5 -44t133 -123t47.5 -183t-47.5 -183t-133 -123t-197.5 -44h-295zM205 87h189q87 0 150.5 33t98.5 92.5t35 137.5q0 79 -35 138t-98.5 92t-150.5 33h-189v-526zM835 0v68l471 584l11 -39h-475v87h565v-68l-469 -584l-12 39h494v-87h-585z
M1082 757l-133 130h87l132 -109h-80l132 109h87l-133 -130h-92z" />
    <glyph glyph-name="uni01C5" unicode="&#x1c5;" horiz-adv-x="1347" 
d="M105 0v700h295q112 0 197.5 -44t133 -123t47.5 -183t-47.5 -183t-133 -123t-197.5 -44h-295zM205 87h189q87 0 150.5 33t98.5 92.5t35 137.5q0 79 -35 138t-98.5 92t-150.5 33h-189v-526zM866 0v62l340 422l19 -33h-353v79h430v-63l-340 -421l-22 33h370v-79h-444z
M1042 607l-133 130h87l132 -109h-80l132 109h87l-133 -130h-92z" />
    <glyph glyph-name="uni01C6" unicode="&#x1c6;" horiz-adv-x="1211" 
d="M310 -6q-77 0 -137.5 34t-95.5 95t-35 142t35 141.5t95.5 94.5t137.5 34q67 0 121 -30t86.5 -90t32.5 -150t-31.5 -150t-85.5 -90.5t-123 -30.5zM318 78q50 0 90.5 23t64 65.5t23.5 98.5q0 57 -23.5 98.5t-64 64.5t-90.5 23q-51 0 -91 -23t-64 -64.5t-24 -98.5
q0 -56 24 -98.5t64 -65.5t91 -23zM499 0v143l6 123l-10 123v353h96v-742h-92zM719 0v62l340 422l19 -33h-353v79h430v-63l-340 -421l-22 33h370v-79h-444zM895 607l-133 130h87l132 -109h-80l132 109h87l-133 -130h-92z" />
    <glyph glyph-name="uni01C7" unicode="&#x1c7;" horiz-adv-x="1107" 
d="M105 0v700h100v-613h379v-87h-479zM789 -8q-62 0 -116 26t-88 75l58 68q29 -40 65.5 -61.5t80.5 -21.5q120 0 120 142v393h-253v87h352v-475q0 -117 -55.5 -175t-163.5 -58z" />
    <glyph glyph-name="uni01C8" unicode="&#x1c8;" horiz-adv-x="877" 
d="M105 0v700h100v-613h379v-87h-479zM617 -200q-33 0 -63.5 8t-51.5 24l31 74q30 -25 78 -25q38 0 58.5 23.5t20.5 69.5v556h96v-554q0 -81 -43.5 -128.5t-125.5 -47.5zM738 632q-28 0 -46.5 18t-18.5 44q0 27 18.5 45t46.5 18t46.5 -17.5t18.5 -43.5q0 -27 -18 -45.5
t-47 -18.5z" />
    <glyph glyph-name="uni01C9" unicode="&#x1c9;" horiz-adv-x="562" 
d="M91 0v742h96v-742h-96zM302 -200q-33 0 -63.5 8t-51.5 24l31 74q30 -25 78 -25q38 0 58.5 23.5t20.5 69.5v556h96v-554q0 -81 -43.5 -128.5t-125.5 -47.5zM423 632q-28 0 -46.5 18t-18.5 44q0 27 18.5 45t46.5 18t46.5 -17.5t18.5 -43.5q0 -27 -18 -45.5t-47 -18.5z" />
    <glyph glyph-name="uni01CA" unicode="&#x1ca;" horiz-adv-x="1325" 
d="M105 0v700h82l463 -575h-43v575h100v-700h-82l-463 575h43v-575h-100zM1007 -8q-62 0 -116 26t-88 75l58 68q29 -40 65.5 -61.5t80.5 -21.5q120 0 120 142v393h-253v87h352v-475q0 -117 -55.5 -175t-163.5 -58z" />
    <glyph glyph-name="uni01CB" unicode="&#x1cb;" horiz-adv-x="1095" 
d="M105 0v700h82l463 -575h-43v575h100v-700h-82l-463 575h43v-575h-100zM835 -200q-33 0 -63.5 8t-51.5 24l31 74q30 -25 78 -25q38 0 58.5 23.5t20.5 69.5v556h96v-554q0 -81 -43.5 -128.5t-125.5 -47.5zM956 632q-28 0 -46.5 18t-18.5 44q0 27 18.5 45t46.5 18
t46.5 -17.5t18.5 -43.5q0 -27 -18 -45.5t-47 -18.5z" />
    <glyph glyph-name="uni01CC" unicode="&#x1cc;" horiz-adv-x="964" 
d="M374 535q65 0 114.5 -25t77.5 -76t28 -129v-305h-96v294q0 77 -37.5 116t-105.5 39q-51 0 -89 -20t-58.5 -59t-20.5 -97v-273h-96v530h92v-143l-15 38q26 52 80 81t126 29zM704 -200q-33 0 -63.5 8t-51.5 24l31 74q30 -25 78 -25q38 0 58.5 23.5t20.5 69.5v556h96v-554
q0 -81 -43.5 -128.5t-125.5 -47.5zM825 632q-28 0 -46.5 18t-18.5 44q0 27 18.5 45t46.5 18t46.5 -17.5t18.5 -43.5q0 -27 -18 -45.5t-47 -18.5z" />
    <glyph glyph-name="uni01CD" unicode="&#x1cd;" horiz-adv-x="732" 
d="M-1 0l317 700h99l318 -700h-105l-283 644h40l-283 -644h-103zM134 175l27 80h394l29 -80h-450zM320 757l-133 130h87l132 -109h-80l132 109h87l-133 -130h-92z" />
    <glyph glyph-name="uni01CE" unicode="&#x1ce;" horiz-adv-x="598" 
d="M420 0v112l-5 21v191q0 61 -35.5 94.5t-106.5 33.5q-47 0 -92 -15.5t-76 -41.5l-40 72q41 33 98.5 50.5t120.5 17.5q109 0 168 -53t59 -162v-320h-91zM246 -6q-59 0 -103.5 20t-68.5 55.5t-24 80.5q0 43 20.5 78t67 56t125.5 21h168v-69h-164q-72 0 -97 -24t-25 -58
q0 -39 31 -62.5t86 -23.5q54 0 94.5 24t58.5 70l19 -66q-19 -47 -67 -74.5t-121 -27.5zM245 607l-133 130h87l132 -109h-80l132 109h87l-133 -130h-92z" />
    <glyph glyph-name="uni01D3" unicode="&#x1d3;" horiz-adv-x="791" 
d="M395 -8q-138 0 -217 79t-79 231v398h100v-394q0 -117 51.5 -171t145.5 -54q95 0 146.5 54t51.5 171v394h97v-398q0 -152 -78.5 -231t-217.5 -79zM350 757l-133 130h87l132 -109h-80l132 109h87l-133 -130h-92z" />
    <glyph glyph-name="uni01D4" unicode="&#x1d4;" horiz-adv-x="677" 
d="M314 -6q-68 0 -119.5 25t-80 76.5t-28.5 129.5v305h96v-294q0 -78 37.5 -117t105.5 -39q50 0 87 20.5t57 60t20 95.5v274h96v-530h-91v143l15 -38q-26 -53 -78 -82t-117 -29zM290 607l-133 130h87l132 -109h-80l132 109h87l-133 -130h-92z" />
    <glyph glyph-name="uni01E4" unicode="&#x1e4;" horiz-adv-x="807" 
d="M401 198v79h383v-79h-383zM421 -8q-81 0 -149 26.5t-118 75t-78 113.5t-28 143t28 143t78.5 113.5t118.5 75t150 26.5q83 0 152 -27t117 -81l-62 -62q-43 42 -93.5 61.5t-109.5 19.5q-60 0 -111.5 -20t-89 -56t-58 -85.5t-20.5 -107.5q0 -57 20.5 -106.5t58 -86
t88.5 -56.5t111 -20q56 0 107.5 17.5t95.5 58.5l57 -76q-52 -44 -121.5 -66.5t-143.5 -22.5zM590 94v260h96v-273z" />
    <glyph glyph-name="uni01E5" unicode="&#x1e5;" horiz-adv-x="698" 
d="M323 -200q-73 0 -141.5 20.5t-111.5 58.5l46 74q37 -32 91 -50.5t113 -18.5q94 0 138 44t44 134v112l10 105l-5 106v145h91v-458q0 -140 -70 -206t-205 -66zM284 -58v65l378 1v-66h-378zM311 43q-77 0 -137.5 31.5t-96 87t-35.5 128.5t35.5 128.5t96 86t137.5 30.5
q68 0 124 -27t89.5 -81t33.5 -137t-33.5 -138t-89.5 -82t-124 -27zM322 124q53 0 94 21t64.5 58.5t23.5 86.5q0 50 -23.5 86.5t-64.5 57.5t-94 21t-94.5 -21t-65 -57.5t-23.5 -86.5q0 -49 23.5 -86.5t65 -58.5t94.5 -21z" />
    <glyph glyph-name="Gcaron" unicode="&#x1e6;" horiz-adv-x="772" 
d="M421 -8q-81 0 -149 26.5t-118 75t-78 113.5t-28 143t28 143t78.5 113.5t118.5 75t150 26.5q83 0 152 -27t117 -81l-62 -62q-43 42 -93.5 61.5t-109.5 19.5q-60 0 -111.5 -20t-89 -56t-58 -85.5t-20.5 -107.5q0 -57 20.5 -106.5t58 -86t88.5 -56.5t111 -20
q56 0 107.5 17.5t95.5 58.5l57 -76q-52 -44 -121.5 -66.5t-143.5 -22.5zM590 94v260h96v-273zM364 757l-133 130h87l132 -109h-80l132 109h87l-133 -130h-92z" />
    <glyph glyph-name="gcaron" unicode="&#x1e7;" horiz-adv-x="690" 
d="M323 -200q-73 0 -141.5 20.5t-111.5 58.5l46 74q37 -32 91 -50.5t113 -18.5q94 0 138 44t44 134v112l10 105l-5 106v145h91v-458q0 -140 -70 -206t-205 -66zM311 22q-77 0 -137.5 32.5t-96 90.5t-35.5 134q0 77 35.5 134.5t96 89.5t137.5 32q68 0 124 -27.5t89.5 -84.5
t33.5 -144q0 -86 -33.5 -143t-89.5 -85.5t-124 -28.5zM322 106q53 0 94 22t64.5 61t23.5 90t-23.5 90t-64.5 60.5t-94 21.5t-94.5 -21.5t-65 -60.5t-23.5 -90t23.5 -90t65 -61t94.5 -22zM283 607l-133 130h87l132 -109h-80l132 109h87l-133 -130h-92z" />
    <glyph glyph-name="uni01E8" unicode="&#x1e8;" horiz-adv-x="719" 
d="M193 169l-5 122l397 409h114l-307 -324l-56 -62zM105 0v700h100v-700h-100zM601 0l-287 334l67 74l337 -408h-117zM329 757l-133 130h87l132 -109h-80l132 109h87l-133 -130h-92z" />
    <glyph glyph-name="uni01E9" unicode="&#x1e9;" horiz-adv-x="616" 
d="M169 128l2 123l305 279h116l-234 -230l-52 -44zM91 0v742h96v-742h-96zM496 0l-208 258l62 77l264 -335h-118zM93 819l-133 130h87l132 -109h-80l132 109h87l-133 -130h-92z" />
    <glyph glyph-name="uni01EA" unicode="&#x1ea;" horiz-adv-x="840" 
d="M429 -224q-56 0 -88 28t-32 73q0 27 13.5 54.5t45 53.5t84.5 47l3 -38q-10 -1 -18.5 -1.5t-15.5 -0.5q-81 0 -148.5 26.5t-118 75t-78.5 113.5t-28 143t28 143t78.5 113.5t118 75t148.5 26.5q80 0 147.5 -26.5t118 -75t78 -113.5t27.5 -143q0 -89 -36 -160t-96.5 -118
t-135.5 -66q-45 -11 -78 -30t-51 -42t-18 -50q0 -25 18 -38.5t44 -13.5q16 0 32.5 5t28.5 12l19 -49q-18 -11 -41.5 -17.5t-48.5 -6.5zM421 81q58 0 107.5 20t86 56.5t57 85.5t20.5 107t-20.5 107t-57 85.5t-86 56.5t-107.5 20q-59 0 -108.5 -20t-86.5 -56.5t-57.5 -85.5
t-20.5 -107t20.5 -107t57.5 -85.5t86.5 -56.5t108.5 -20z" />
    <glyph glyph-name="uni01EB" unicode="&#x1eb;" horiz-adv-x="635" 
d="M347 -224q-56 0 -88 28t-32 71q0 28 13 56t43.5 54t82.5 47l5 -33q-16 -3 -28.5 -4t-24.5 -1q-80 0 -142 35t-98 96t-36 140t36 140t98 95.5t142 34.5q79 0 141.5 -34.5t98 -95.5t35.5 -140q0 -87 -43.5 -152t-117.5 -97q-56 -25 -85.5 -47.5t-40.5 -43.5t-11 -40
q0 -26 17.5 -39.5t44.5 -13.5q16 0 32.5 5t28.5 12l19 -49q-19 -11 -42 -17.5t-48 -6.5zM318 78q51 0 91.5 23t63.5 65.5t23 98.5q0 57 -23 98.5t-63.5 64.5t-91.5 23t-91 -23t-64 -64.5t-24 -98.5q0 -56 24 -98.5t64 -65.5t91 -23z" />
    <glyph glyph-name="uni01EE" unicode="&#x1ee;" horiz-adv-x="623" 
d="M297 -8q-80 0 -151.5 23t-114.5 61l37 79q37 -33 97 -54.5t130 -21.5q85 0 131.5 34t46.5 93q0 56 -45 89t-140 33h-58v69l226 256l9 -38h-407v85h483v-68l-225 -255l-43 29h33q90 0 149 -25t89 -70.5t30 -104.5t-30.5 -108t-91.5 -77.5t-155 -28.5zM256 757l-133 130h87
l132 -109h-80l132 109h87l-133 -130h-92z" />
    <glyph glyph-name="uni01EF" unicode="&#x1ef;" horiz-adv-x="527" 
d="M232 -201q-77 0 -144.5 24t-107.5 64l37 80q34 -35 90.5 -57t120.5 -22q82 0 124.5 35t42.5 96q0 59 -41 94t-130 35h-57v68l211 265l9 -36h-382v85h459v-69l-212 -266l-43 31h32q127 0 190 -57.5t63 -149.5q0 -61 -29 -110.5t-87 -79.5t-146 -30zM180 607l-133 130h87
l132 -109h-80l132 109h87l-133 -130h-92z" />
    <glyph glyph-name="Aringacute" unicode="&#x1fa;" horiz-adv-x="732" 
d="M-1 0l317 700h99l318 -700h-105l-283 644h40l-283 -644h-103zM134 175l27 80h394l29 -80h-450zM365 764q-31 0 -56 15t-39.5 39t-14.5 54t14.5 55t39.5 40t56 15q32 0 57 -15t39.5 -40t14.5 -55t-14.5 -54t-39.5 -39t-57 -15zM365 806q29 0 47.5 19t18.5 47
q0 29 -18.5 48t-47.5 19q-28 0 -46.5 -18.5t-18.5 -48.5q0 -28 18 -47t47 -19zM447 927l-51 18l107 108l50 -41z" />
    <glyph glyph-name="aringacute" unicode="&#x1fb;" horiz-adv-x="598" 
d="M420 0v112l-5 21v191q0 61 -35.5 94.5t-106.5 33.5q-47 0 -92 -15.5t-76 -41.5l-40 72q41 33 98.5 50.5t120.5 17.5q109 0 168 -53t59 -162v-320h-91zM246 -6q-59 0 -103.5 20t-68.5 55.5t-24 80.5q0 43 20.5 78t67 56t125.5 21h168v-69h-164q-72 0 -97 -24t-25 -58
q0 -39 31 -62.5t86 -23.5q54 0 94.5 24t58.5 70l19 -66q-19 -47 -67 -74.5t-121 -27.5zM290 594q-31 0 -56 15t-39.5 39t-14.5 54t14.5 55t39.5 40t56 15q32 0 57 -15t39.5 -40t14.5 -55t-14.5 -54t-39.5 -39t-57 -15zM290 636q29 0 47.5 19t18.5 47q0 29 -18.5 48t-47.5 19
q-28 0 -46.5 -18.5t-18.5 -48.5q0 -28 18 -47t47 -19zM372 757l-51 18l107 108l50 -41z" />
    <glyph glyph-name="AEacute" unicode="&#x1fc;" horiz-adv-x="1047" 
d="M-1 0l417 700h100v-87h-88l61 44l-387 -657h-103zM177 175l6 80h333v-80h-339zM574 398h359v-85h-360zM582 87h409v-87h-508v700h494v-87h-395v-526zM457 757l136 130h122l-168 -130h-90z" />
    <glyph glyph-name="aeacute" unicode="&#x1fd;" horiz-adv-x="989" 
d="M256 -6q-97 0 -151.5 44.5t-54.5 115.5q0 40 20.5 74t67 55t125.5 21h167v-69h-163q-71 0 -96.5 -23.5t-25.5 -55.5q0 -41 31.5 -64.5t87.5 -23.5q71 0 111 36.5t40 96.5v123q0 61 -35.5 94.5t-105.5 33.5q-48 0 -93 -15.5t-76 -41.5l-40 72q41 33 98.5 50.5t119.5 17.5
q92 0 146 -36.5t69 -107.5l-46 6q31 64 91.5 101t139.5 37q57 0 105.5 -19.5t84 -55.5t55 -85t19.5 -107q0 -10 -0.5 -18t-2.5 -15h-452v69h402l-40 -26q0 57 -24 96t-63.5 59.5t-84.5 20.5q-43 0 -82.5 -20.5t-64 -60t-24.5 -97.5v-16q0 -53 24 -94.5t67.5 -64.5t101.5 -23
q47 0 85 16t68 48l54 -62q-37 -43 -90.5 -64.5t-119.5 -21.5q-61 0 -115 19t-94 59t-62 103l62 -2q-12 -67 -48.5 -106.5t-86 -56t-101.5 -16.5zM388 607l136 130h122l-168 -130h-90z" />
    <glyph glyph-name="Oslashacute" unicode="&#x1fe;" horiz-adv-x="840" 
d="M421 -8q-80 0 -148.5 27t-118.5 75.5t-78 113.5t-28 142t28 142t78 113.5t118 75.5t149 27q80 0 147.5 -26.5t118 -75t78 -113.5t27.5 -143t-27.5 -143t-78 -113.5t-118 -75t-147.5 -26.5zM421 81q58 0 107.5 20t86 56.5t57 85.5t20.5 107t-20.5 107t-57 85.5t-86 56.5
t-107.5 20q-59 0 -108.5 -20t-86.5 -56.5t-57.5 -85.5t-20.5 -107t20.5 -107t57.5 -85.5t86.5 -56.5t108.5 -20zM81 -70l602 840h78l-602 -840h-78zM346 757l136 130h122l-168 -130h-90z" />
    <glyph glyph-name="oslashacute" unicode="&#x1ff;" horiz-adv-x="635" 
d="M318 -6q-80 0 -142 35t-98 96.5t-36 139.5q0 79 36 140t98 95.5t142 34.5q79 0 141.5 -34.5t98 -95t35.5 -140.5q0 -79 -35.5 -140t-98 -96t-141.5 -35zM318 78q51 0 91.5 23t63.5 65.5t23 98.5q0 57 -23 98.5t-63.5 64.5t-91.5 23t-91 -23t-64 -64.5t-24 -98.5
q0 -56 24 -98.5t64 -65.5t91 -23zM66 -71l441 669h59l-440 -669h-60zM240 607l136 130h122l-168 -130h-90z" />
    <glyph glyph-name="uni0200" unicode="&#x200;" horiz-adv-x="732" 
d="M-1 0l317 700h99l318 -700h-105l-283 644h40l-283 -644h-103zM134 175l27 80h394l29 -80h-450zM413 757l-111 130h102l90 -130h-81zM238 757l-109 130h101l89 -130h-81z" />
    <glyph glyph-name="uni0201" unicode="&#x201;" horiz-adv-x="598" 
d="M420 0v112l-5 21v191q0 61 -35.5 94.5t-106.5 33.5q-47 0 -92 -15.5t-76 -41.5l-40 72q41 33 98.5 50.5t120.5 17.5q109 0 168 -53t59 -162v-320h-91zM246 -6q-59 0 -103.5 20t-68.5 55.5t-24 80.5q0 43 20.5 78t67 56t125.5 21h168v-69h-164q-72 0 -97 -24t-25 -58
q0 -39 31 -62.5t86 -23.5q54 0 94.5 24t58.5 70l19 -66q-19 -47 -67 -74.5t-121 -27.5zM338 607l-111 130h102l90 -130h-81zM163 607l-109 130h101l89 -130h-81z" />
    <glyph glyph-name="uni0202" unicode="&#x202;" horiz-adv-x="732" 
d="M-1 0l317 700h99l318 -700h-105l-283 644h40l-283 -644h-103zM134 175l27 80h394l29 -80h-450zM204 757q2 63 48 99.5t114 36.5t114 -36.5t48 -99.5h-65q-1 37 -29.5 58.5t-67.5 21.5t-67 -21.5t-30 -58.5h-65z" />
    <glyph glyph-name="uni0203" unicode="&#x203;" horiz-adv-x="598" 
d="M420 0v112l-5 21v191q0 61 -35.5 94.5t-106.5 33.5q-47 0 -92 -15.5t-76 -41.5l-40 72q41 33 98.5 50.5t120.5 17.5q109 0 168 -53t59 -162v-320h-91zM246 -6q-59 0 -103.5 20t-68.5 55.5t-24 80.5q0 43 20.5 78t67 56t125.5 21h168v-69h-164q-72 0 -97 -24t-25 -58
q0 -39 31 -62.5t86 -23.5q54 0 94.5 24t58.5 70l19 -66q-19 -47 -67 -74.5t-121 -27.5zM129 607q2 63 48 99.5t114 36.5t114 -36.5t48 -99.5h-65q-1 37 -29.5 58.5t-67.5 21.5t-67 -21.5t-30 -58.5h-65z" />
    <glyph glyph-name="uni0204" unicode="&#x204;" horiz-adv-x="670" 
d="M196 398h360v-85h-360v85zM205 87h408v-87h-508v700h494v-87h-394v-526zM400 757l-111 130h102l90 -130h-81zM225 757l-109 130h101l89 -130h-81z" />
    <glyph glyph-name="uni0205" unicode="&#x205;" horiz-adv-x="612" 
d="M327 -6q-85 0 -149.5 35t-100 96t-35.5 140t34.5 140t95 95.5t136.5 34.5q77 0 136 -34t92.5 -95.5t33.5 -143.5q0 -6 -0.5 -14t-1.5 -15h-451v69h401l-39 -24q1 51 -21 91t-60.5 62.5t-89.5 22.5q-50 0 -89 -22.5t-61 -63t-22 -92.5v-16q0 -53 24.5 -94.5t68.5 -64.5
t101 -23q47 0 85.5 16t67.5 48l53 -62q-36 -42 -89.5 -64t-119.5 -22zM354 607l-111 130h102l90 -130h-81zM179 607l-109 130h101l89 -130h-81z" />
    <glyph glyph-name="uni0206" unicode="&#x206;" horiz-adv-x="670" 
d="M196 398h360v-85h-360v85zM205 87h408v-87h-508v700h494v-87h-394v-526zM191 757q2 63 48 99.5t114 36.5t114 -36.5t48 -99.5h-65q-1 37 -29.5 58.5t-67.5 21.5t-67 -21.5t-30 -58.5h-65z" />
    <glyph glyph-name="uni0207" unicode="&#x207;" horiz-adv-x="612" 
d="M327 -6q-85 0 -149.5 35t-100 96t-35.5 140t34.5 140t95 95.5t136.5 34.5q77 0 136 -34t92.5 -95.5t33.5 -143.5q0 -6 -0.5 -14t-1.5 -15h-451v69h401l-39 -24q1 51 -21 91t-60.5 62.5t-89.5 22.5q-50 0 -89 -22.5t-61 -63t-22 -92.5v-16q0 -53 24.5 -94.5t68.5 -64.5
t101 -23q47 0 85.5 16t67.5 48l53 -62q-36 -42 -89.5 -64t-119.5 -22zM145 607q2 63 48 99.5t114 36.5t114 -36.5t48 -99.5h-65q-1 37 -29.5 58.5t-67.5 21.5t-67 -21.5t-30 -58.5h-65z" />
    <glyph glyph-name="uni0208" unicode="&#x208;" horiz-adv-x="310" 
d="M105 0v700h100v-700h-100zM202 757l-111 130h102l90 -130h-81zM27 757l-109 130h101l89 -130h-81z" />
    <glyph glyph-name="uni0209" unicode="&#x209;" horiz-adv-x="279" 
d="M91 0v530h96v-530h-96zM186 607l-111 130h102l90 -130h-81zM11 607l-109 130h101l89 -130h-81z" />
    <glyph glyph-name="uni020A" unicode="&#x20a;" horiz-adv-x="310" 
d="M105 0v700h100v-700h-100zM-7 757q2 63 48 99.5t114 36.5t114 -36.5t48 -99.5h-65q-1 37 -29.5 58.5t-67.5 21.5t-67 -21.5t-30 -58.5h-65z" />
    <glyph glyph-name="uni020B" unicode="&#x20b;" horiz-adv-x="279" 
d="M91 0v530h96v-530h-96zM2 607q0 63 39 99.5t98 36.5t98 -36.5t39 -99.5h-62q0 37 -20 58.5t-55 21.5t-55 -21.5t-20 -58.5h-62z" />
    <glyph glyph-name="uni020C" unicode="&#x20c;" horiz-adv-x="840" 
d="M421 -8q-80 0 -148.5 27t-118.5 75.5t-78 113.5t-28 142t28 142t78 113.5t118 75.5t149 27q80 0 147.5 -26.5t118 -75t78 -113.5t27.5 -143t-27.5 -143t-78 -113.5t-118 -75t-147.5 -26.5zM421 81q58 0 107.5 20t86 56.5t57 85.5t20.5 107t-20.5 107t-57 85.5t-86 56.5
t-107.5 20q-59 0 -108.5 -20t-86.5 -56.5t-57.5 -85.5t-20.5 -107t20.5 -107t57.5 -85.5t86.5 -56.5t108.5 -20zM468 757l-111 130h102l90 -130h-81zM293 757l-109 130h101l89 -130h-81z" />
    <glyph glyph-name="uni020D" unicode="&#x20d;" horiz-adv-x="635" 
d="M318 -6q-80 0 -142 35t-98 96.5t-36 139.5q0 79 36 140t98 95.5t142 34.5q79 0 141.5 -34.5t98 -95t35.5 -140.5q0 -79 -35.5 -140t-98 -96t-141.5 -35zM318 78q51 0 91.5 23t63.5 65.5t23 98.5q0 57 -23 98.5t-63.5 64.5t-91.5 23t-91 -23t-64 -64.5t-24 -98.5
q0 -56 24 -98.5t64 -65.5t91 -23zM364 607l-111 130h102l90 -130h-81zM189 607l-109 130h101l89 -130h-81z" />
    <glyph glyph-name="uni020E" unicode="&#x20e;" horiz-adv-x="840" 
d="M421 -8q-80 0 -148.5 27t-118.5 75.5t-78 113.5t-28 142t28 142t78 113.5t118 75.5t149 27q80 0 147.5 -26.5t118 -75t78 -113.5t27.5 -143t-27.5 -143t-78 -113.5t-118 -75t-147.5 -26.5zM421 81q58 0 107.5 20t86 56.5t57 85.5t20.5 107t-20.5 107t-57 85.5t-86 56.5
t-107.5 20q-59 0 -108.5 -20t-86.5 -56.5t-57.5 -85.5t-20.5 -107t20.5 -107t57.5 -85.5t86.5 -56.5t108.5 -20zM259 757q2 63 48 99.5t114 36.5t114 -36.5t48 -99.5h-65q-1 37 -29.5 58.5t-67.5 21.5t-67 -21.5t-30 -58.5h-65z" />
    <glyph glyph-name="uni020F" unicode="&#x20f;" horiz-adv-x="635" 
d="M318 -6q-80 0 -142 35t-98 96.5t-36 139.5q0 79 36 140t98 95.5t142 34.5q79 0 141.5 -34.5t98 -95t35.5 -140.5q0 -79 -35.5 -140t-98 -96t-141.5 -35zM318 78q51 0 91.5 23t63.5 65.5t23 98.5q0 57 -23 98.5t-63.5 64.5t-91.5 23t-91 -23t-64 -64.5t-24 -98.5
q0 -56 24 -98.5t64 -65.5t91 -23zM155 607q2 63 48 99.5t114 36.5t114 -36.5t48 -99.5h-65q-1 37 -29.5 58.5t-67.5 21.5t-67 -21.5t-30 -58.5h-65z" />
    <glyph glyph-name="uni0210" unicode="&#x210;" horiz-adv-x="727" 
d="M105 0v700h273q92 0 157 -29t100 -84t35 -131t-35 -130.5t-100 -83.5t-157 -29h-218l45 46v-259h-100zM573 0l-178 254h107l180 -254h-109zM205 249l-45 49h215q96 0 145.5 41.5t49.5 116.5t-49.5 116t-145.5 41h-215l45 50v-414zM418 757l-111 130h102l90 -130h-81z
M243 757l-109 130h101l89 -130h-81z" />
    <glyph glyph-name="uni0211" unicode="&#x211;" horiz-adv-x="410" 
d="M91 0v530h92v-144l-9 36q22 55 74 84t128 29v-93q-6 1 -11.5 1h-10.5q-77 0 -122 -46t-45 -133v-264h-96zM281 607l-111 130h102l90 -130h-81zM106 607l-109 130h101l89 -130h-81z" />
    <glyph glyph-name="uni0212" unicode="&#x212;" horiz-adv-x="727" 
d="M105 0v700h273q92 0 157 -29t100 -84t35 -131t-35 -130.5t-100 -83.5t-157 -29h-218l45 46v-259h-100zM573 0l-178 254h107l180 -254h-109zM205 249l-45 49h215q96 0 145.5 41.5t49.5 116.5t-49.5 116t-145.5 41h-215l45 50v-414zM209 757q2 63 48 99.5t114 36.5
t114 -36.5t48 -99.5h-65q-1 37 -29.5 58.5t-67.5 21.5t-67 -21.5t-30 -58.5h-65z" />
    <glyph glyph-name="uni0213" unicode="&#x213;" horiz-adv-x="410" 
d="M91 0v530h92v-144l-9 36q22 55 74 84t128 29v-93q-6 1 -11.5 1h-10.5q-77 0 -122 -46t-45 -133v-264h-96zM72 607q2 63 48 99.5t114 36.5t114 -36.5t48 -99.5h-65q-1 37 -29.5 58.5t-67.5 21.5t-67 -21.5t-30 -58.5h-65z" />
    <glyph glyph-name="uni0214" unicode="&#x214;" horiz-adv-x="791" 
d="M395 -8q-138 0 -217 79t-79 231v398h100v-394q0 -117 51.5 -171t145.5 -54q95 0 146.5 54t51.5 171v394h97v-398q0 -152 -78.5 -231t-217.5 -79zM443 757l-111 130h102l90 -130h-81zM268 757l-109 130h101l89 -130h-81z" />
    <glyph glyph-name="uni0215" unicode="&#x215;" horiz-adv-x="677" 
d="M314 -6q-68 0 -119.5 25t-80 76.5t-28.5 129.5v305h96v-294q0 -78 37.5 -117t105.5 -39q50 0 87 20.5t57 60t20 95.5v274h96v-530h-91v143l15 -38q-26 -53 -78 -82t-117 -29zM383 607l-111 130h102l90 -130h-81zM208 607l-109 130h101l89 -130h-81z" />
    <glyph glyph-name="uni0216" unicode="&#x216;" horiz-adv-x="791" 
d="M395 -8q-138 0 -217 79t-79 231v398h100v-394q0 -117 51.5 -171t145.5 -54q95 0 146.5 54t51.5 171v394h97v-398q0 -152 -78.5 -231t-217.5 -79zM234 757q2 63 48 99.5t114 36.5t114 -36.5t48 -99.5h-65q-1 37 -29.5 58.5t-67.5 21.5t-67 -21.5t-30 -58.5h-65z" />
    <glyph glyph-name="uni0217" unicode="&#x217;" horiz-adv-x="677" 
d="M314 -6q-68 0 -119.5 25t-80 76.5t-28.5 129.5v305h96v-294q0 -78 37.5 -117t105.5 -39q50 0 87 20.5t57 60t20 95.5v274h96v-530h-91v143l15 -38q-26 -53 -78 -82t-117 -29zM174 607q2 63 48 99.5t114 36.5t114 -36.5t48 -99.5h-65q-1 37 -29.5 58.5t-67.5 21.5
t-67 -21.5t-30 -58.5h-65z" />
    <glyph glyph-name="uni0218" unicode="&#x218;" horiz-adv-x="621" 
d="M309 -8q-80 0 -153 24.5t-115 63.5l37 78q40 -35 102 -58t129 -23q61 0 99 14t56 38.5t18 55.5q0 36 -23.5 58t-61 35.5t-82.5 23.5t-90.5 23.5t-83 34.5t-60.5 56.5t-23 91.5q0 54 28.5 99.5t88 73t151.5 27.5q61 0 121 -16t104 -46l-33 -80q-45 30 -95 43.5t-97 13.5
q-59 0 -97 -15t-55.5 -40t-17.5 -56q0 -37 23.5 -59t61 -35t82.5 -23.5t90.5 -23.5t83 -34t60.5 -56t23 -90q0 -53 -29 -98.5t-89.5 -73t-152.5 -27.5zM280 -263l33 114l9 -36q-24 0 -37.5 12.5t-13.5 32.5t14 33t37 13q24 0 37.5 -13.5t13.5 -32.5q0 -10 -2.5 -23
t-10.5 -28l-30 -72h-50z" />
    <glyph glyph-name="uni0219" unicode="&#x219;" horiz-adv-x="501" 
d="M243 -6q-66 0 -125.5 18t-93.5 44l40 76q34 -23 84 -39t102 -16q67 0 96.5 19t29.5 53q0 25 -18 39t-47.5 21t-65.5 12.5t-72 14t-66 24t-48 43t-18 73.5q0 48 27 84t76.5 55.5t117.5 19.5q52 0 105.5 -12.5t87.5 -35.5l-41 -76q-36 24 -75 33t-78 9q-63 0 -94 -20.5
t-31 -52.5q0 -27 18.5 -41.5t48 -22.5t65.5 -13.5t72 -14t65.5 -23.5t48 -42t18.5 -72q0 -48 -28 -83t-79 -54.5t-122 -19.5zM206 -263l33 114l9 -36q-24 0 -37.5 12.5t-13.5 32.5t14 33t37 13q24 0 37.5 -13.5t13.5 -32.5q0 -10 -2.5 -23t-10.5 -28l-30 -72h-50z" />
    <glyph glyph-name="uni021A" unicode="&#x21a;" horiz-adv-x="587" 
d="M244 0v613h-240v87h579v-87h-240v-613h-99zM251 -263l33 114l9 -36q-24 0 -37.5 12.5t-13.5 32.5t14 33t37 13q24 0 37.5 -13.5t13.5 -32.5q0 -10 -2.5 -23t-10.5 -28l-30 -72h-50z" />
    <glyph glyph-name="uni021B" unicode="&#x21b;" horiz-adv-x="414" 
d="M273 -6q-80 0 -124 43t-44 123v486h96v-482q0 -43 21.5 -66t61.5 -23q45 0 75 25l30 -69q-22 -19 -52.5 -28t-63.5 -9zM15 451v79h338v-79h-338zM211 -263l33 114l9 -36q-24 0 -37.5 12.5t-13.5 32.5t14 33t37 13q24 0 37.5 -13.5t13.5 -32.5q0 -10 -2.5 -23t-10.5 -28
l-30 -72h-50z" />
    <glyph glyph-name="uni021E" unicode="&#x21e;" horiz-adv-x="812" 
d="M607 700h100v-700h-100v700zM205 0h-100v700h100v-700zM616 312h-421v87h421v-87zM359 757l-133 130h87l132 -109h-80l132 109h87l-133 -130h-92z" />
    <glyph glyph-name="uni021F" unicode="&#x21f;" horiz-adv-x="681" 
d="M374 535q65 0 114.5 -25t77.5 -76t28 -129v-305h-96v294q0 77 -37.5 116t-105.5 39q-51 0 -89 -20t-58.5 -59t-20.5 -97v-273h-96v742h96v-355l-19 38q26 52 80 81t126 29zM93 819l-133 130h87l132 -109h-80l132 109h87l-133 -130h-92z" />
    <glyph glyph-name="uni022A" unicode="&#x22a;" horiz-adv-x="840" 
d="M421 -8q-80 0 -148.5 27t-118.5 75.5t-78 113.5t-28 142t28 142t78 113.5t118 75.5t149 27q80 0 147.5 -26.5t118 -75t78 -113.5t27.5 -143t-27.5 -143t-78 -113.5t-118 -75t-147.5 -26.5zM421 81q58 0 107.5 20t86 56.5t57 85.5t20.5 107t-20.5 107t-57 85.5t-86 56.5
t-107.5 20q-59 0 -108.5 -20t-86.5 -56.5t-57.5 -85.5t-20.5 -107t20.5 -107t57.5 -85.5t86.5 -56.5t108.5 -20zM512 774q-20 0 -34.5 14.5t-14.5 35.5t14.5 35t34.5 14q21 0 35.5 -14t14.5 -35t-14.5 -35.5t-35.5 -14.5zM331 774q-21 0 -35.5 14.5t-14.5 35.5t14.5 35
t35.5 14t35 -14t14 -35t-14 -35.5t-35 -14.5zM258 921v57h326v-57h-326z" />
    <glyph glyph-name="uni022B" unicode="&#x22b;" horiz-adv-x="635" 
d="M318 -6q-80 0 -142 35t-98 96.5t-36 139.5q0 79 36 140t98 95.5t142 34.5q79 0 141.5 -34.5t98 -95t35.5 -140.5q0 -79 -35.5 -140t-98 -96t-141.5 -35zM318 78q51 0 91.5 23t63.5 65.5t23 98.5q0 57 -23 98.5t-63.5 64.5t-91.5 23t-91 -23t-64 -64.5t-24 -98.5
q0 -56 24 -98.5t64 -65.5t91 -23zM408 624q-20 0 -34.5 14.5t-14.5 35.5t14.5 35t34.5 14q21 0 35.5 -14t14.5 -35t-14.5 -35.5t-35.5 -14.5zM227 624q-21 0 -35.5 14.5t-14.5 35.5t14.5 35t35.5 14t35 -14t14 -35t-14 -35.5t-35 -14.5zM154 771v57h326v-57h-326z" />
    <glyph glyph-name="uni022C" unicode="&#x22c;" horiz-adv-x="840" 
d="M421 -8q-80 0 -148.5 27t-118.5 75.5t-78 113.5t-28 142t28 142t78 113.5t118 75.5t149 27q80 0 147.5 -26.5t118 -75t78 -113.5t27.5 -143t-27.5 -143t-78 -113.5t-118 -75t-147.5 -26.5zM421 81q58 0 107.5 20t86 56.5t57 85.5t20.5 107t-20.5 107t-57 85.5t-86 56.5
t-107.5 20q-59 0 -108.5 -20t-86.5 -56.5t-57.5 -85.5t-20.5 -107t20.5 -107t57.5 -85.5t86.5 -56.5t108.5 -20zM491 762q-32 0 -55 13.5t-42 27t-38 13.5q-23 0 -34 -13t-12 -37h-54q1 49 27 76t69 27q32 0 54.5 -13.5t42 -27t38.5 -13.5q22 0 33.5 13t12.5 36h53
q-1 -47 -26.5 -74.5t-68.5 -27.5zM258 921v57h326v-57h-326z" />
    <glyph glyph-name="uni022D" unicode="&#x22d;" horiz-adv-x="635" 
d="M318 -6q-80 0 -142 35t-98 96.5t-36 139.5q0 79 36 140t98 95.5t142 34.5q79 0 141.5 -34.5t98 -95t35.5 -140.5q0 -79 -35.5 -140t-98 -96t-141.5 -35zM318 78q51 0 91.5 23t63.5 65.5t23 98.5q0 57 -23 98.5t-63.5 64.5t-91.5 23t-91 -23t-64 -64.5t-24 -98.5
q0 -56 24 -98.5t64 -65.5t91 -23zM387 612q-32 0 -55 13.5t-42 27t-38 13.5q-23 0 -34 -13t-12 -37h-54q1 49 27 76t69 27q32 0 54.5 -13.5t42 -27t38.5 -13.5q22 0 33.5 13t12.5 36h53q-1 -47 -26.5 -74.5t-68.5 -27.5zM154 771v57h326v-57h-326z" />
    <glyph glyph-name="uni0230" unicode="&#x230;" horiz-adv-x="840" 
d="M421 -8q-80 0 -148.5 27t-118.5 75.5t-78 113.5t-28 142t28 142t78 113.5t118 75.5t149 27q80 0 147.5 -26.5t118 -75t78 -113.5t27.5 -143t-27.5 -143t-78 -113.5t-118 -75t-147.5 -26.5zM421 81q58 0 107.5 20t86 56.5t57 85.5t20.5 107t-20.5 107t-57 85.5t-86 56.5
t-107.5 20q-59 0 -108.5 -20t-86.5 -56.5t-57.5 -85.5t-20.5 -107t20.5 -107t57.5 -85.5t86.5 -56.5t108.5 -20zM421 773q-21 0 -36 14.5t-15 37.5q0 22 15 36.5t36 14.5t36 -14.5t15 -36.5q0 -23 -15 -37.5t-36 -14.5zM258 924v57h326v-57h-326z" />
    <glyph glyph-name="uni0231" unicode="&#x231;" horiz-adv-x="635" 
d="M318 -6q-80 0 -142 35t-98 96.5t-36 139.5q0 79 36 140t98 95.5t142 34.5q79 0 141.5 -34.5t98 -95t35.5 -140.5q0 -79 -35.5 -140t-98 -96t-141.5 -35zM318 78q51 0 91.5 23t63.5 65.5t23 98.5q0 57 -23 98.5t-63.5 64.5t-91.5 23t-91 -23t-64 -64.5t-24 -98.5
q0 -56 24 -98.5t64 -65.5t91 -23zM317 623q-21 0 -36 14.5t-15 37.5q0 22 15 36.5t36 14.5t36 -14.5t15 -36.5q0 -23 -15 -37.5t-36 -14.5zM154 774v57h326v-57h-326z" />
    <glyph glyph-name="uni0232" unicode="&#x232;" horiz-adv-x="647" 
d="M274 0v268l23 -62l-301 494h107l253 -417h-58l254 417h99l-300 -494l22 62v-268h-99zM161 792v60h326v-60h-326z" />
    <glyph glyph-name="uni0233" unicode="&#x233;" horiz-adv-x="559" 
d="M114 -200q-38 0 -74 12.5t-62 36.5l41 72q20 -19 44 -29t51 -10q35 0 58 18t43 64l33 73l10 12l208 481h94l-257 -583q-23 -56 -51.5 -88t-62.5 -45.5t-75 -13.5zM240 -17l-242 547h100l206 -472zM103 642v60h326v-60h-326z" />
    <glyph glyph-name="uni0237" unicode="&#x237;" horiz-adv-x="284" 
d="M23 -200q-33 0 -63.5 8t-51.5 24l31 74q30 -25 78 -25q38 0 58.5 23.5t20.5 69.5v556h96v-554q0 -81 -43.5 -128.5t-125.5 -47.5z" />
    <glyph glyph-name="uni0259" unicode="&#x259;" horiz-adv-x="612" 
d="M285 535q86 0 150 -34.5t99.5 -95.5t35.5 -140t-34.5 -140t-94.5 -96t-137 -35q-76 0 -135.5 34.5t-93 96t-33.5 142.5q0 7 0.5 15t1.5 15h451v-70h-400l38 24q0 -51 22 -90.5t60.5 -62t88.5 -22.5q51 0 90 22.5t60.5 63t21.5 92.5v16q0 54 -24 94.5t-67.5 63.5
t-101.5 23q-47 0 -85.5 -15.5t-68.5 -48.5l-52 62q35 42 89 64t119 22z" />
    <glyph glyph-name="uni0292" unicode="&#x292;" horiz-adv-x="527" 
d="M232 -201q-77 0 -144.5 24t-107.5 64l37 80q34 -35 90.5 -57t120.5 -22q82 0 124.5 35t42.5 96q0 59 -41 94t-130 35h-57v68l211 265l9 -36h-382v85h459v-69l-212 -266l-43 31h32q127 0 190 -57.5t63 -149.5q0 -61 -29 -110.5t-87 -79.5t-146 -30z" />
    <glyph glyph-name="uni02B9" unicode="&#x2b9;" horiz-adv-x="210" 
d="M69 430l-6 270h84l-7 -270h-71z" />
    <glyph glyph-name="uni02BA" unicode="&#x2ba;" horiz-adv-x="391" 
d="M69 430l-6 270h84l-7 -270h-71zM250 430l-6 270h84l-7 -270h-71z" />
    <glyph glyph-name="uni02BB" unicode="&#x2bb;" horiz-adv-x="273" 
d="M193 861l-50 -203l-12 58q29 0 48 -18t19 -48t-19 -49t-47 -19q-29 0 -48 19.5t-19 48.5q0 10 1.5 19t5.5 21.5t11 30.5l47 140h63z" />
    <glyph glyph-name="uni02BC" unicode="&#x2bc;" horiz-adv-x="238" 
d="M58 469l50 203l13 -58q-29 0 -48.5 18t-19.5 48q0 31 19.5 49.5t47.5 18.5q29 0 47 -19.5t18 -48.5q0 -9 -1 -18.5t-4.5 -21.5t-10.5 -31l-48 -140h-63z" />
    <glyph glyph-name="uni02BE" unicode="&#x2be;" horiz-adv-x="600" 
d="M299 594v44q29 0 47.5 18.5t18.5 45.5q0 29 -18.5 47.5t-47.5 18.5v44q33 0 58 -15t39.5 -40t14.5 -55t-14.5 -54t-39.5 -39t-58 -15z" />
    <glyph glyph-name="uni02BF" unicode="&#x2bf;" horiz-adv-x="600" 
d="M299 594q-32 0 -57.5 15t-40 39t-14.5 54t14.5 55t40 40t57.5 15v-44q-28 0 -46.5 -18.5t-18.5 -47.5q0 -27 18 -45.5t47 -18.5v-44z" />
    <glyph glyph-name="circumflex" unicode="&#x2c6;" horiz-adv-x="600" 
d="M121 607l133 130h92l133 -130h-87l-132 110h80l-132 -110h-87z" />
    <glyph glyph-name="caron" unicode="&#x2c7;" horiz-adv-x="600" 
d="M254 607l-133 130h87l132 -109h-80l132 109h87l-133 -130h-92z" />
    <glyph glyph-name="uni02C8" unicode="&#x2c8;" horiz-adv-x="172" 
d="M53 510v190h66v-190h-66z" />
    <glyph glyph-name="uni02C9" unicode="&#x2c9;" horiz-adv-x="600" 
d="M137 642v60h326v-60h-326z" />
    <glyph glyph-name="uni02CA" unicode="&#x2ca;" horiz-adv-x="600" 
d="M225 607l136 130h122l-168 -130h-90z" />
    <glyph glyph-name="uni02CB" unicode="&#x2cb;" horiz-adv-x="600" 
d="M285 607l-168 130h122l136 -130h-90z" />
    <glyph glyph-name="uni02CC" unicode="&#x2cc;" horiz-adv-x="173" 
d="M53 -220v190h67v-190h-67z" />
    <glyph glyph-name="breve" unicode="&#x2d8;" horiz-adv-x="600" 
d="M300 601q-68 0 -114 36.5t-48 99.5h65q2 -37 30 -58.5t67 -21.5t67.5 21.5t29.5 58.5h65q-2 -63 -48 -99.5t-114 -36.5z" />
    <glyph glyph-name="dotaccent" unicode="&#x2d9;" horiz-adv-x="600" 
d="M300 625q-25 0 -42 17t-17 42t17 42t42 17t42 -17t17 -42t-17 -42t-42 -17z" />
    <glyph glyph-name="ring" unicode="&#x2da;" horiz-adv-x="600" 
d="M299 594q-31 0 -56 15t-39.5 39t-14.5 54t14.5 55t39.5 40t56 15q32 0 57 -15t39.5 -40t14.5 -55t-14.5 -54t-39.5 -39t-57 -15zM299 636q29 0 47.5 19t18.5 47q0 29 -18.5 48t-47.5 19q-28 0 -46.5 -18.5t-18.5 -48.5q0 -28 18 -47t47 -19z" />
    <glyph glyph-name="ogonek" unicode="&#x2db;" horiz-adv-x="600" 
d="M233 -224q-56 0 -88 28t-32 73q0 27 13.5 54t45.5 53t84 48l45 -32q-44 -20 -70 -39t-37.5 -38t-11.5 -39q0 -25 17.5 -38.5t43.5 -13.5q17 0 33.5 5t28.5 12l18 -49q-18 -11 -41.5 -17.5t-48.5 -6.5z" />
    <glyph glyph-name="tilde" unicode="&#x2dc;" horiz-adv-x="600" 
d="M370 610q-24 0 -42.5 10t-33.5 23.5t-29 23.5t-28 10q-22 0 -35.5 -16.5t-15.5 -45.5h-54q2 56 28 89t70 33q24 0 43 -10.5t34 -24t28.5 -23.5t27.5 -10q22 0 36 16t15 44h54q-1 -53 -27.5 -86t-70.5 -33z" />
    <glyph glyph-name="hungarumlaut" unicode="&#x2dd;" horiz-adv-x="600" 
d="M347 607l89 130h101l-109 -130h-81zM172 607l90 130h102l-111 -130h-81z" />
    <glyph glyph-name="gravecomb" unicode="&#x300;" 
d="M285 607l-168 130h122l136 -130h-90z" />
    <glyph glyph-name="acutecomb" unicode="&#x301;" 
d="M225 607l136 130h122l-168 -130h-90z" />
    <glyph glyph-name="uni0302" unicode="&#x302;" 
d="M121 607l133 130h92l133 -130h-87l-132 110h80l-132 -110h-87z" />
    <glyph glyph-name="tildecomb" unicode="&#x303;" 
d="M370 610q-24 0 -42.5 10t-33.5 23.5t-29 23.5t-28 10q-22 0 -35.5 -16.5t-15.5 -45.5h-54q2 56 28 89t70 33q24 0 43 -10.5t34 -24t28.5 -23.5t27.5 -10q22 0 36 16t15 44h54q-1 -53 -27.5 -86t-70.5 -33z" />
    <glyph glyph-name="uni0304" unicode="&#x304;" 
d="M137 642v60h326v-60h-326z" />
    <glyph glyph-name="uni0306" unicode="&#x306;" 
d="M300 601q-68 0 -114 36.5t-48 99.5h65q2 -37 30 -58.5t67 -21.5t67.5 21.5t29.5 58.5h65q-2 -63 -48 -99.5t-114 -36.5z" />
    <glyph glyph-name="uni0307" unicode="&#x307;" 
d="M300 625q-25 0 -42 17t-17 42t17 42t42 17t42 -17t17 -42t-17 -42t-42 -17z" />
    <glyph glyph-name="uni0308" unicode="&#x308;" 
d="M393 624q-21 0 -36 14.5t-15 36.5q0 23 15 37.5t36 14.5t36 -14.5t15 -37.5q0 -22 -15 -36.5t-36 -14.5zM207 624q-21 0 -36 14.5t-15 36.5q0 23 15 37.5t36 14.5t36 -14.5t15 -37.5q0 -22 -15 -36.5t-36 -14.5z" />
    <glyph glyph-name="hookabovecomb" unicode="&#x309;" 
d="M319 598l-33 39q29 14 42.5 30.5t13.5 36.5q0 21 -14 34t-38 13q-31 0 -60 -19l-22 45q19 14 43.5 21t47.5 7q46 0 74 -25.5t28 -67.5q0 -37 -20 -65.5t-62 -48.5z" />
    <glyph glyph-name="uni030A" unicode="&#x30a;" 
d="M299 594q-31 0 -56 15t-39.5 39t-14.5 54t14.5 55t39.5 40t56 15q32 0 57 -15t39.5 -40t14.5 -55t-14.5 -54t-39.5 -39t-57 -15zM299 636q29 0 47.5 19t18.5 47q0 29 -18.5 48t-47.5 19q-28 0 -46.5 -18.5t-18.5 -48.5q0 -28 18 -47t47 -19z" />
    <glyph glyph-name="uni030B" unicode="&#x30b;" 
d="M347 607l89 130h101l-109 -130h-81zM172 607l90 130h102l-111 -130h-81z" />
    <glyph glyph-name="uni030C" unicode="&#x30c;" 
d="M254 607l-133 130h87l132 -109h-80l132 109h87l-133 -130h-92z" />
    <glyph glyph-name="uni030F" unicode="&#x30f;" 
d="M347 607l-111 130h102l90 -130h-81zM172 607l-109 130h101l89 -130h-81z" />
    <glyph glyph-name="uni0311" unicode="&#x311;" 
d="M138 607q2 63 48 99.5t114 36.5t114 -36.5t48 -99.5h-65q-1 37 -29.5 58.5t-67.5 21.5t-67 -21.5t-30 -58.5h-65z" />
    <glyph glyph-name="uni0312" unicode="&#x312;" 
d="M300 601q-27 0 -41.5 13.5t-14.5 32.5q0 10 3.5 22t11.5 28l37 94h55l-39 -135l-12 36q26 0 41 -12t15 -33q0 -20 -14.5 -33t-41.5 -13z" />
    <glyph glyph-name="uni031B" unicode="&#x31b;" 
d="M282 457v73h18q33 0 48.5 18.5t15.5 46.5q0 19 -5.5 35t-14.5 28l61 23q14 -17 21 -40t7 -49q0 -60 -35 -97.5t-98 -37.5h-18z" />
    <glyph glyph-name="dotbelowcomb" unicode="&#x323;" 
d="M300 -196q-21 0 -36 14t-15 36q0 23 15 37.5t36 14.5t36 -14.5t15 -37.5q0 -22 -15 -36t-36 -14z" />
    <glyph glyph-name="uni0324" unicode="&#x324;" 
d="M387 -193q-20 0 -35 14t-15 36q0 21 15 35t35 14t34.5 -14t14.5 -35q0 -22 -14.5 -36t-34.5 -14zM213 -193q-20 0 -34.5 14t-14.5 36q0 21 14.5 35t34.5 14q21 0 36 -14t15 -35q0 -22 -15 -36t-36 -14z" />
    <glyph glyph-name="uni0326" unicode="&#x326;" 
d="M258 -263l33 114l9 -36q-24 0 -37.5 12.5t-13.5 32.5t14 33t37 13q24 0 37.5 -13.5t13.5 -32.5q0 -10 -2.5 -23t-10.5 -28l-30 -72h-50z" />
    <glyph glyph-name="uni0327" unicode="&#x327;" 
d="M275 -224q-26 0 -48 5.5t-41 16.5l21 49q16 -9 32.5 -13t35.5 -4q29 0 42.5 10.5t13.5 29.5q0 18 -13.5 28.5t-43.5 10.5h-27l25 98h55l-15 -57q43 -4 65 -27t22 -56q0 -42 -34 -66.5t-90 -24.5z" />
    <glyph glyph-name="uni0328" unicode="&#x328;" 
d="M233 -224q-56 0 -88 28t-32 73q0 27 13.5 54t45.5 53t84 48l45 -32q-44 -20 -70 -39t-37.5 -38t-11.5 -39q0 -25 17.5 -38.5t43.5 -13.5q17 0 33.5 5t28.5 12l18 -49q-18 -11 -41.5 -17.5t-48.5 -6.5z" />
    <glyph glyph-name="uni032E" unicode="&#x32e;" 
d="M300 -209q-68 0 -114 35t-48 93h63q0 -35 28.5 -55t70.5 -20t70.5 20t28.5 55h63q-2 -58 -48 -93t-114 -35z" />
    <glyph glyph-name="uni0331" unicode="&#x331;" 
d="M137 -174v61h326v-61h-326z" />
    <glyph glyph-name="uni0335" unicode="&#x335;" 
d="M102 404v68h396v-68h-396z" />
    <glyph glyph-name="uni0336" unicode="&#x336;" 
d="M33 398v79h807v-79h-807z" />
    <glyph glyph-name="uni0337" unicode="&#x337;" 
d="M96 257l-43 57l265 202l43 -58z" />
    <glyph glyph-name="uni0338" unicode="&#x338;" 
d="M61 -70l441 669h59l-440 -669h-60z" />
    <glyph glyph-name="uni0394" unicode="&#x394;" horiz-adv-x="732" 
d="M415 700l318 -700h-734l317 700h99zM118 38l-30 49h554l-31 -49l-266 606h40z" />
    <glyph glyph-name="uni03A9" unicode="&#x3a9;" horiz-adv-x="898" 
d="M9 0v87h196q-60 48 -93.5 118t-33.5 154q0 77 28 141t78.5 111t118 72t146.5 25q80 0 147 -25t117.5 -72t78.5 -111t28 -141q0 -84 -33.5 -154t-93.5 -118h196v-87h-346v81q86 44 131.5 116t45.5 157q0 59 -20 107.5t-56 84t-86 54.5t-109 19t-109 -19t-85.5 -54.5
t-56 -84t-20.5 -107.5q0 -85 45.5 -157.5t131.5 -115.5v-81h-346z" />
    <glyph glyph-name="uni03BC" unicode="&#x3bc;" horiz-adv-x="682" 
d="M91 -194v724h96v-294q0 -78 37.5 -117t105.5 -39q50 0 87 20.5t57 60t20 95.5v274h96v-530h-91v144l16 -29q-16 -43 -45 -69.5t-65 -39t-73 -12.5q-57 0 -99.5 23.5t-64.5 67.5l19 37v-316h-96z" />
    <glyph glyph-name="pi" unicode="&#x3c0;" horiz-adv-x="724" 
d="M33 261q-20 23 -30.5 55.5t-10.5 61.5q0 43 22 77.5t62 54.5t95 20h544l-1 -79h-532q-50 0 -77.5 -21.5t-27.5 -66.5q0 -19 8.5 -40t20.5 -40zM174 0l54 472h96l-54 -472h-96zM471 0v472h96v-472h-96z" />
    <glyph glyph-name="uni0400" unicode="&#x400;" horiz-adv-x="665" 
d="M200 398h360v-85h-360v85zM209 87h408v-87h-508v700h494v-87h-394v-526zM342 757l-168 130h122l136 -130h-90z" />
    <glyph glyph-name="uni0401" unicode="&#x401;" horiz-adv-x="665" 
d="M200 398h360v-85h-360v85zM209 87h408v-87h-508v700h494v-87h-394v-526zM450 774q-21 0 -36 14.5t-15 36.5q0 23 15 37.5t36 14.5t36 -14.5t15 -37.5q0 -22 -15 -36.5t-36 -14.5zM264 774q-21 0 -36 14.5t-15 36.5q0 23 15 37.5t36 14.5t36 -14.5t15 -37.5
q0 -22 -15 -36.5t-36 -14.5z" />
    <glyph glyph-name="uni0402" unicode="&#x402;" horiz-adv-x="833" 
d="M254 0v639l24 -26h-264v87h601v-87h-287l24 26v-639h-98zM478 4l12 83q36 -9 72 -7.5t66.5 16t49 41.5t18.5 71q0 54 -30 86t-81 42t-115.5 -1t-133.5 -43l-1 90q95 36 178.5 42t147 -15.5t99 -71.5t35.5 -127q0 -69 -27 -114.5t-72.5 -70t-102 -29.5t-115.5 8z" />
    <glyph glyph-name="uni0403" unicode="&#x403;" horiz-adv-x="578" 
d="M109 0v700h459l-1 -87h-384l24 25l1 -638h-99zM255 757l136 130h122l-168 -130h-90z" />
    <glyph glyph-name="uni0404" unicode="&#x404;" horiz-adv-x="708" 
d="M495 385v-82h-375v82h375zM406 -8q-76 0 -140.5 26.5t-112 75t-74 113.5t-26.5 143t26.5 143t74 113.5t112 75t140.5 26.5q84 0 154.5 -28t117.5 -82l-62 -63q-42 43 -93.5 63t-111.5 20q-55 0 -102.5 -20t-82 -55.5t-53.5 -85t-19 -107.5t19 -107.5t53.5 -85t82 -55.5
t102.5 -20q60 0 111.5 20t93.5 63l62 -63q-47 -54 -117.5 -82t-154.5 -28z" />
    <glyph glyph-name="uni0405" unicode="&#x405;" horiz-adv-x="636" 
d="M317 -8q-80 0 -153 24.5t-115 63.5l37 78q40 -35 102 -58t129 -23q61 0 99 14t56 38.5t18 55.5q0 36 -23.5 58t-61 35.5t-82.5 23.5t-90.5 23.5t-83 34.5t-60.5 56.5t-23 91.5q0 54 28.5 99.5t88 73t151.5 27.5q61 0 121 -16t104 -46l-33 -80q-45 30 -95 43.5t-97 13.5
q-59 0 -97 -15t-55.5 -40t-17.5 -56q0 -37 23.5 -59t61 -35t82.5 -23.5t90.5 -23.5t83 -34t60.5 -56t23 -90q0 -53 -29 -98.5t-89.5 -73t-152.5 -27.5z" />
    <glyph glyph-name="uni0406" unicode="&#x406;" horiz-adv-x="317" 
d="M109 0v700h99v-700h-99z" />
    <glyph glyph-name="uni0407" unicode="&#x407;" horiz-adv-x="310" 
d="M105 0v700h100v-700h-100zM248 774q-21 0 -36.5 14.5t-15.5 36.5q0 23 15.5 37.5t36.5 14.5t36 -14.5t15 -37.5q0 -22 -15 -36.5t-36 -14.5zM62 774q-21 0 -36 14.5t-15 36.5q0 23 15 37.5t36 14.5t36 -14.5t15 -37.5q0 -22 -15 -36.5t-36 -14.5z" />
    <glyph glyph-name="uni0408" unicode="&#x408;" horiz-adv-x="540" 
d="M222 -8q-62 0 -116 26t-88 75l58 68q29 -40 65.5 -61.5t80.5 -21.5q120 0 120 142v393h-253v87h352v-475q0 -117 -55.5 -175t-163.5 -58z" />
    <glyph glyph-name="uni0409" unicode="&#x409;" horiz-adv-x="1187" 
d="M76 -8q-15 0 -30 2t-33 6l7 89q16 -4 32 -4q44 0 70 35t38.5 106t16.5 179l11 295h493v-700h-98v639l24 -26h-355l22 27l-8 -232q-3 -104 -14 -182t-33 -130t-56.5 -78t-86.5 -26zM889 456q124 0 191 -55.5t67 -165.5q0 -116 -72.5 -175.5t-203.5 -59.5h-289v700h99v-244
h208zM867 79q87 0 133.5 39t46.5 115q0 74 -46 109t-134 35h-186v-298h186z" />
    <glyph glyph-name="uni040A" unicode="&#x40a;" horiz-adv-x="1180" 
d="M109 0v700h99v-280h389v280h98v-700h-98v334h-389v-334h-99zM695 53l-24 26h207q79 0 122 35.5t43 99.5q0 63 -43 96.5t-122 33.5h-207l24 27v-318zM597 0v700h98v-306l-24 30h230q115 0 179 -54t64 -152q0 -103 -68 -160.5t-189 -57.5h-290z" />
    <glyph glyph-name="uni040B" unicode="&#x40b;" horiz-adv-x="842" 
d="M252 0v639l25 -26h-264v87h596v-87h-283l24 26v-639h-98zM334 375q59 24 112.5 35.5t103.5 11.5q110 0 176.5 -57.5t66.5 -175.5v-189h-98v176q0 78 -44.5 117.5t-121.5 39.5q-84 0 -194 -51z" />
    <glyph glyph-name="uni040C" unicode="&#x40c;" horiz-adv-x="711" 
d="M580 0l-254 345l81 50l287 -395h-114zM109 0v700h98v-700h-98zM177 308v88h227v-88h-227zM416 339l-92 14l251 347h107zM284 757l136 130h122l-168 -130h-90z" />
    <glyph glyph-name="uni040D" unicode="&#x40d;" horiz-adv-x="823" 
d="M109 0v700h99v-540l414 540h92v-700h-98v539l-415 -539h-92zM395 757l-168 130h122l136 -130h-90z" />
    <glyph glyph-name="uni040E" unicode="&#x40e;" horiz-adv-x="691" 
d="M107 88q52 -19 96 -9.5t79 66.5l34 54l10 11l257 490h99l-311 -576q-35 -66 -81.5 -99.5t-100 -37t-108.5 20.5zM323 121l-307 579h107l255 -499zM341 749q-82 0 -126.5 36t-45.5 101h71q1 -39 28 -60.5t73 -21.5q45 0 72.5 21.5t28.5 60.5h70q-1 -65 -45.5 -101
t-125.5 -36z" />
    <glyph glyph-name="uni040F" unicode="&#x40f;" horiz-adv-x="807" 
d="M697 700v-700h-248v-159h-92v159h-248v700h99v-613h390v613h99z" />
    <glyph glyph-name="uni0410" unicode="&#x410;" horiz-adv-x="758" 
d="M12 0l317 700h99l318 -700h-105l-283 644h40l-283 -644h-103zM147 175l27 80h394l29 -80h-450z" />
    <glyph glyph-name="uni0411" unicode="&#x411;" horiz-adv-x="731" 
d="M109 0v700h528v-85h-429v-200h218q125 0 190 -52t65 -151q0 -102 -70.5 -157t-201.5 -55h-300zM208 79h197q87 0 131.5 33t44.5 98q0 126 -176 126h-197v-257z" />
    <glyph glyph-name="uni0412" unicode="&#x412;" horiz-adv-x="747" 
d="M109 0v700h301q114 0 179 -46t65 -134q0 -86 -62 -131.5t-163 -45.5l18 30q117 0 179.5 -46.5t62.5 -135.5q0 -90 -65.5 -140.5t-194.5 -50.5h-320zM208 79h219q80 0 120.5 29.5t40.5 90.5t-40.5 89t-120.5 28h-219v-237zM208 392h195q73 0 111.5 29t38.5 85
q0 57 -38.5 86t-111.5 29h-195v-229z" />
    <glyph glyph-name="uni0413" unicode="&#x413;" horiz-adv-x="578" 
d="M109 0v700h459l-1 -87h-384l24 25l1 -638h-99z" />
    <glyph glyph-name="uni0414" unicode="&#x414;" horiz-adv-x="804" 
d="M574 47v566h-307l-5 -147q-3 -74 -9.5 -142t-18.5 -122.5t-33.5 -89.5t-54.5 -43l-108 18q39 -3 64.5 26.5t40 83t21.5 125t10 153.5l7 225h492v-653h-99zM13 -153l1 240h762v-240h-93v153h-576l-1 -153h-93z" />
    <glyph glyph-name="uni0415" unicode="&#x415;" horiz-adv-x="665" 
d="M200 398h360v-85h-360v85zM209 87h408v-87h-508v700h494v-87h-394v-526z" />
    <glyph glyph-name="uni0416" unicode="&#x416;" horiz-adv-x="1029" 
d="M893 0l-219 345l84 50l252 -395h-117zM534 308v88h205v-88h-205zM764 339l-93 14l215 347h107zM136 0h-117l251 395l85 -50zM564 0h-98v700h98v-700zM496 308h-206v88h206v-88zM266 339l-230 361h107l214 -347z" />
    <glyph glyph-name="uni0417" unicode="&#x417;" horiz-adv-x="642" 
d="M32 76l35 74q46 -36 101.5 -54t110.5 -18.5t101.5 14.5t74.5 45t28 74q0 54 -43.5 82t-120.5 28h-156v81h149q67 0 104.5 27.5t37.5 76.5q0 37 -22.5 62.5t-61 38.5t-87 13.5t-99.5 -13t-98 -42.5l-32 82q64 36 133.5 50.5t134.5 9t117.5 -30t84 -64t31.5 -94.5
q0 -50 -26 -88.5t-72 -59t-107 -20.5l4 27q70 0 121.5 -22.5t80 -63.5t28.5 -95q0 -51 -26 -90.5t-70.5 -66t-101 -38.5t-118.5 -8t-122.5 24t-113.5 59z" />
    <glyph glyph-name="uni0418" unicode="&#x418;" horiz-adv-x="823" 
d="M109 0v700h99v-540l414 540h92v-700h-98v539l-415 -539h-92z" />
    <glyph glyph-name="uni0419" unicode="&#x419;" horiz-adv-x="823" 
d="M109 0v700h99v-540l414 540h92v-700h-98v539l-415 -539h-92zM410 749q-82 0 -126.5 36t-45.5 101h71q1 -39 28 -60.5t73 -21.5q45 0 72.5 21.5t28.5 60.5h70q-1 -65 -45.5 -101t-125.5 -36z" />
    <glyph glyph-name="uni041A" unicode="&#x41a;" horiz-adv-x="711" 
d="M580 0l-254 345l81 50l287 -395h-114zM109 0v700h98v-700h-98zM177 308v88h227v-88h-227zM416 339l-92 14l251 347h107z" />
    <glyph glyph-name="uni041B" unicode="&#x41b;" horiz-adv-x="790" 
d="M76 -8q-15 0 -30 2t-33 6l7 89q16 -4 32 -4q44 0 70 35t38.5 106t16.5 179l11 295h493v-700h-98v639l24 -26h-355l22 27l-8 -232q-3 -104 -14 -182t-33 -130t-56.5 -78t-86.5 -26z" />
    <glyph glyph-name="uni041C" unicode="&#x41c;" horiz-adv-x="963" 
d="M109 0v700h82l314 -529h-44l310 529h82l1 -700h-96l-1 549h23l-276 -464h-46l-278 464h25v-549h-96z" />
    <glyph glyph-name="uni041D" unicode="&#x41d;" horiz-adv-x="820" 
d="M611 700h100v-700h-100v700zM209 0h-100v700h100v-700zM620 312h-421v87h421v-87z" />
    <glyph glyph-name="uni041E" unicode="&#x41e;" horiz-adv-x="848" 
d="M424 -8q-80 0 -148.5 27t-118.5 75.5t-78 113.5t-28 142t28 142t78 113.5t118 75.5t149 27q80 0 147.5 -26.5t118 -75t78 -113.5t27.5 -143t-27.5 -143t-78 -113.5t-118 -75t-147.5 -26.5zM424 81q58 0 107.5 20t86 56.5t57 85.5t20.5 107t-20.5 107t-57 85.5t-86 56.5
t-107.5 20q-59 0 -108.5 -20t-86.5 -56.5t-57.5 -85.5t-20.5 -107t20.5 -107t57.5 -85.5t86.5 -56.5t108.5 -20z" />
    <glyph glyph-name="uni041F" unicode="&#x41f;" horiz-adv-x="821" 
d="M109 0v700h603v-700h-98v639l24 -26h-455l25 26v-639h-99z" />
    <glyph glyph-name="uni0420" unicode="&#x420;" horiz-adv-x="714" 
d="M109 0v700h273q92 0 157 -29t100 -84t35 -131t-35 -130.5t-100 -84t-157 -29.5h-218l45 47v-259h-100zM209 249l-45 50h215q96 0 145.5 41t49.5 116t-49.5 116t-145.5 41h-215l45 50v-414z" />
    <glyph glyph-name="uni0421" unicode="&#x421;" horiz-adv-x="718" 
d="M422 -8q-80 0 -147.5 26.5t-117 75t-77.5 113.5t-28 143t28 143t78 113.5t117.5 75t147.5 26.5q81 0 149.5 -27.5t116.5 -81.5l-65 -63q-40 42 -90 62.5t-107 20.5q-59 0 -109.5 -20t-87.5 -56t-57.5 -85.5t-20.5 -107.5t20.5 -107.5t57.5 -85.5t87.5 -56t109.5 -20
q57 0 107 20.5t90 63.5l65 -63q-48 -54 -116.5 -82t-150.5 -28z" />
    <glyph glyph-name="uni0422" unicode="&#x422;" horiz-adv-x="603" 
d="M252 0v639l25 -26h-264v87h577v-87h-264l24 26v-639h-98z" />
    <glyph glyph-name="uni0423" unicode="&#x423;" horiz-adv-x="691" 
d="M107 88q52 -19 96 -9.5t79 66.5l34 54l10 11l257 490h99l-311 -576q-35 -66 -81.5 -99.5t-100 -37t-108.5 20.5zM323 121l-307 579h107l255 -499z" />
    <glyph glyph-name="uni0424" unicode="&#x424;" horiz-adv-x="926" 
d="M451 47q-128 0 -219 35.5t-139 103.5t-48 165t48 165t139 104t219 36h7.5h11h6.5q128 0 218.5 -36t138.5 -104t48 -165q0 -96 -47.5 -164.5t-137 -104t-216.5 -35.5h-8.5h-12.5h-8zM462 125h5h3q102 1 172 26.5t106.5 76t36.5 124.5q0 73 -37 123t-106.5 76t-169.5 26
h-4.5h-5.5q-103 0 -174.5 -25.5t-108.5 -75.5t-37 -125t38 -125t109.5 -75.5t172.5 -25.5zM417 -26v752h93v-752h-93z" />
    <glyph glyph-name="uni0425" unicode="&#x425;" horiz-adv-x="668" 
d="M34 700h115l183 -256l183 256h117l-237 -336l256 -364h-118l-201 279l-200 -279h-115l255 360z" />
    <glyph glyph-name="uni0426" unicode="&#x426;" horiz-adv-x="829" 
d="M109 0v700h99v-613h390v613h99v-700h-588zM712 -159v185l24 -26h-138v87h207v-246h-93z" />
    <glyph glyph-name="uni0427" unicode="&#x427;" horiz-adv-x="736" 
d="M545 284q-59 -25 -114.5 -37.5t-107.5 -12.5q-128 0 -198.5 62t-70.5 177v227h98v-216q0 -78 48 -120t134 -42q51 0 104.5 13t104.5 38zM528 0v700h99v-700h-99z" />
    <glyph glyph-name="uni0428" unicode="&#x428;" horiz-adv-x="1095" 
d="M522 87l-23 -26v639h98v-639l-25 26h341l-25 -26v639h98v-700h-877v700h99v-639l-25 26h339z" />
    <glyph glyph-name="uni0429" unicode="&#x429;" horiz-adv-x="1121" 
d="M522 87l-23 -26v639h98v-639l-25 26h341l-25 -26v639h98v-700h-877v700h99v-639l-25 26h339zM999 -153v179l25 -26h-138v87h205v-240h-92z" />
    <glyph glyph-name="uni042A" unicode="&#x42a;" horiz-adv-x="828" 
d="M531 456q124 0 190.5 -55.5t66.5 -165.5q0 -116 -72 -175.5t-204 -59.5h-288v613h-211v87h310v-244h208zM510 79q86 0 132 39t46 115q0 74 -45.5 109t-132.5 35h-187v-298h187z" />
    <glyph glyph-name="uni042B" unicode="&#x42b;" horiz-adv-x="993" 
d="M416 456q124 0 191 -55.5t67 -165.5q0 -116 -72.5 -175.5t-203.5 -59.5h-289v700h99v-244h208zM394 79q87 0 133.5 39t46.5 115q0 74 -46 109t-134 35h-186v-298h186zM785 0v700h99v-700h-99z" />
    <glyph glyph-name="uni042C" unicode="&#x42c;" horiz-adv-x="713" 
d="M416 456q124 0 191 -55.5t67 -165.5q0 -116 -72.5 -175.5t-203.5 -59.5h-289v700h99v-244h208zM394 79q87 0 133.5 39t46.5 115q0 74 -46 109t-134 35h-186v-298h186z" />
    <glyph glyph-name="uni042D" unicode="&#x42d;" horiz-adv-x="707" 
d="M212 315v82h375v-82h-375zM302 708q76 0 140 -26.5t111.5 -75t74 -113.5t26.5 -143t-26.5 -143t-74 -113.5t-111.5 -75t-140 -26.5q-84 0 -154.5 28t-118.5 82l63 63q42 -43 93.5 -63t111.5 -20q55 0 102 20t81.5 55.5t53.5 85t19 107.5t-19 107.5t-53.5 85t-81.5 55.5
t-102 20q-60 0 -111.5 -20t-93.5 -63l-63 63q48 54 118.5 82t154.5 28z" />
    <glyph glyph-name="uni042E" unicode="&#x42e;" horiz-adv-x="1099" 
d="M109 0v700h99v-300h181v-90h-181v-310h-99zM689 -8q-76 0 -141 26.5t-113 75t-74.5 113.5t-26.5 143t26.5 143t74.5 113.5t113 75t141 26.5t141.5 -26.5t113.5 -75t74.5 -113.5t26.5 -143t-26.5 -143t-74.5 -113.5t-113.5 -75t-141.5 -26.5zM689 82q55 0 101.5 19.5
t81 55.5t54 85t19.5 108t-19.5 108t-54 85t-81 55.5t-100.5 19.5t-100.5 -19.5t-81 -55.5t-54 -85t-19.5 -108t19.5 -108t54 -85t81 -55.5t99.5 -19.5z" />
    <glyph glyph-name="uni042F" unicode="&#x42f;" horiz-adv-x="731" 
d="M524 0v228l26 -24h-219q-85 0 -146.5 29t-94 83.5t-32.5 131.5q0 80 35 136.5t99 86t149 29.5h281v-700h-98zM58 0l173 248h102l-169 -248h-106zM524 260v382l26 -29h-205q-90 0 -138 -41.5t-48 -122.5q0 -77 45.5 -119t134.5 -42h211z" />
    <glyph glyph-name="uni0430" unicode="&#x430;" horiz-adv-x="589" 
d="M418 0v112l-5 21v191q0 61 -35.5 94.5t-106.5 33.5q-47 0 -92 -15.5t-76 -41.5l-40 72q41 33 98.5 50.5t120.5 17.5q109 0 168 -53t59 -162v-320h-91zM244 -6q-59 0 -103.5 20t-68.5 55.5t-24 80.5q0 43 20.5 78t67 56t125.5 21h168v-69h-164q-72 0 -97 -24t-25 -58
q0 -39 31 -62.5t86 -23.5q54 0 94.5 24t58.5 70l19 -66q-19 -47 -67 -74.5t-121 -27.5z" />
    <glyph glyph-name="uni0431" unicode="&#x431;" horiz-adv-x="662" 
d="M338 -8q-66 0 -116.5 21t-86.5 62.5t-54.5 105t-18.5 149.5q0 68 12 122t34.5 96t56 73t76 51.5t93.5 31.5l242 54l14 -89l-223 -48q-20 -4 -48 -12t-57 -24.5t-54 -45.5t-40 -75.5t-15 -114.5q0 -19 1 -29t2.5 -20t2.5 -30l-40 41q16 55 51 96t84.5 63.5t108.5 22.5
q74 0 131.5 -32t90.5 -88t33 -128q0 -73 -34.5 -130.5t-97.5 -90t-148 -32.5zM347 72q51 0 90 22.5t61 61t22 86.5t-22 85t-61 58.5t-92 21.5q-50 0 -90 -20.5t-62 -57t-22 -84.5t22.5 -87.5t62 -62.5t91.5 -23z" />
    <glyph glyph-name="uni0432" unicode="&#x432;" horiz-adv-x="614" 
d="M93 0v530h246q93 0 146.5 -35.5t53.5 -100.5t-50.5 -100.5t-133.5 -35.5l15 26q95 0 141 -35t46 -103q0 -69 -51.5 -107.5t-157.5 -38.5h-255zM187 74h154q60 0 90 18.5t30 59.5q0 42 -27.5 61.5t-86.5 19.5h-160v-159zM187 302h144q55 0 83.5 20.5t28.5 57.5
q0 38 -28.5 57t-83.5 19h-144v-154z" />
    <glyph glyph-name="uni0433" unicode="&#x433;" horiz-adv-x="488" 
d="M93 0v530h390v-84h-317l23 22v-468h-96z" />
    <glyph glyph-name="uni0434" unicode="&#x434;" horiz-adv-x="664" 
d="M455 45v401h-230l-5 -102q-2 -50 -6.5 -96.5t-14 -85.5t-27.5 -64t-48 -31l-95 17q31 -1 50 20.5t29.5 59.5t15.5 86.5t8 100.5l8 179h411v-485h-96zM8 -123v207h624v-207h-90v123h-443v-123h-91z" />
    <glyph glyph-name="uni0435" unicode="&#x435;" horiz-adv-x="628" 
d="M329 -6q-85 0 -149.5 35t-100 96t-35.5 140t34.5 140t95 95.5t136.5 34.5q77 0 136 -34t92.5 -95.5t33.5 -143.5q0 -6 -0.5 -14t-1.5 -15h-451v69h401l-39 -24q1 51 -21 91t-60.5 62.5t-89.5 22.5q-50 0 -89 -22.5t-61 -63t-22 -92.5v-16q0 -53 24.5 -94.5t68.5 -64.5
t101 -23q47 0 85.5 16t67.5 48l53 -62q-36 -42 -89.5 -64t-119.5 -22z" />
    <glyph glyph-name="uni0436" unicode="&#x436;" horiz-adv-x="849" 
d="M722 0l-169 258l79 48l204 -306h-114zM443 224v82h172v-82h-172zM641 254l-91 12l169 264h103zM127 0h-114l203 306l79 -48zM472 0h-96v530h96v-530zM405 224h-171v82h171v-82zM208 254l-181 276h102l169 -264z" />
    <glyph glyph-name="uni0437" unicode="&#x437;" horiz-adv-x="544" 
d="M248 -7q70 0 124.5 20.5t86.5 57t32 84.5q0 60 -51 95t-140 35l-4 -23q52 0 92 17t64 46.5t24 67.5q0 45 -31.5 78t-85.5 50.5t-123 15.5q-46 -1 -92.5 -13.5t-94.5 -35.5l26 -75q43 21 84.5 31t81.5 11q41 0 71.5 -9t47.5 -26t17 -41q0 -22 -14.5 -38.5t-40.5 -24.5
t-61 -8h-90v-69h96q59 0 92 -20t33 -57q0 -26 -18 -45.5t-51.5 -30.5t-79.5 -11q-50 0 -99 13.5t-87 37.5l-29 -73q45 -29 102.5 -44.5t117.5 -15.5z" />
    <glyph glyph-name="uni0438" unicode="&#x438;" horiz-adv-x="694" 
d="M93 0v530h96v-386l325 386h87v-530h-96v386l-324 -386h-88z" />
    <glyph glyph-name="uni0439" unicode="&#x439;" horiz-adv-x="694" 
d="M93 0v530h96v-386l325 386h87v-530h-96v386l-324 -386h-88zM341 599q-73 0 -114.5 35.5t-42.5 102.5h65q1 -38 25.5 -60t65.5 -22t66 22t26 60h67q-1 -67 -43 -102.5t-115 -35.5z" />
    <glyph glyph-name="uni043A" unicode="&#x43a;" horiz-adv-x="598" 
d="M477 0l-205 258l79 48l239 -306h-113zM93 0v530h96v-530h-96zM160 224v82h175v-82h-175zM359 254l-89 12l203 264h103z" />
    <glyph glyph-name="uni043B" unicode="&#x43b;" horiz-adv-x="641" 
d="M5 1l6 81q7 -1 13 -2t11 -1q32 0 50.5 22t27.5 58.5t13 82.5t6 92l9 196h407v-530h-96v474l23 -28h-272l22 29l-7 -147q-3 -70 -11 -131t-24.5 -107t-45 -72t-73.5 -26q-13 0 -27.5 2.5t-31.5 6.5z" />
    <glyph glyph-name="uni043C" unicode="&#x43c;" horiz-adv-x="798" 
d="M93 0v530h99l228 -392h-40l234 392h90v-530h-87v422l16 -9l-214 -353h-42l-215 360l19 4v-424h-88z" />
    <glyph glyph-name="uni043D" unicode="&#x43d;" horiz-adv-x="681" 
d="M93 0v530h96v-225h302v225h96v-530h-96v222h-302v-222h-96z" />
    <glyph glyph-name="uni043E" unicode="&#x43e;" horiz-adv-x="641" 
d="M320 -6q-80 0 -142 35t-98 96.5t-36 139.5q0 79 36 140t98 95.5t142 34.5q79 0 141.5 -34.5t98 -95t35.5 -140.5q0 -79 -35.5 -140t-98 -96t-141.5 -35zM320 78q51 0 91.5 23t63.5 65.5t23 98.5q0 57 -23 98.5t-63.5 64.5t-91.5 23t-91 -23t-64 -64.5t-24 -98.5
q0 -56 24 -98.5t64 -65.5t91 -23z" />
    <glyph glyph-name="uni043F" unicode="&#x43f;" horiz-adv-x="677" 
d="M93 0v530h491v-530h-96v470l23 -24h-345l23 24v-470h-96z" />
    <glyph glyph-name="uni0440" unicode="&#x440;" horiz-adv-x="688" 
d="M374 -6q-66 0 -120.5 30.5t-87 90.5t-32.5 150t31.5 150t86 90t122.5 30q78 0 138 -34t95 -94.5t35 -141.5t-35 -142t-95 -95t-138 -34zM93 -194v724h92v-143l-6 -123l10 -123v-335h-96zM366 78q51 0 91.5 23t64 65.5t23.5 98.5q0 57 -23.5 98.5t-64 64.5t-91.5 23
q-50 0 -90.5 -23t-64 -64.5t-23.5 -98.5q0 -56 23.5 -98.5t64 -65.5t90.5 -23z" />
    <glyph glyph-name="uni0441" unicode="&#x441;" horiz-adv-x="571" 
d="M324 -6q-81 0 -144.5 35t-99.5 96t-36 140t36 140t99.5 95.5t144.5 34.5q72 0 128.5 -28.5t87.5 -84.5l-73 -47q-26 39 -63.5 57.5t-80.5 18.5q-52 0 -93 -23t-65 -64.5t-24 -98.5t24 -99t65 -65t93 -23q43 0 80.5 18.5t63.5 57.5l73 -46q-31 -55 -87.5 -84.5
t-128.5 -29.5z" />
    <glyph glyph-name="uni0442" unicode="&#x442;" horiz-adv-x="493" 
d="M198 0v471l24 -25h-218v84h484v-84h-217l23 25v-471h-96z" />
    <glyph glyph-name="uni0443" unicode="&#x443;" horiz-adv-x="571" 
d="M120 -200q-38 0 -74 12.5t-62 36.5l41 72q20 -19 44 -29t51 -10q35 0 58 18t43 64l33 73l10 12l208 481h94l-257 -583q-23 -56 -51.5 -88t-62.5 -45.5t-75 -13.5zM246 -17l-242 547h100l206 -472z" />
    <glyph glyph-name="uni0444" unicode="&#x444;" horiz-adv-x="805" 
d="M409 -8h-6.5h-10.5h-6q-163 2 -253 72.5t-90 201.5q0 130 90.5 199.5t255.5 70.5h6.5h9h5.5q167 0 259.5 -70t92.5 -200q0 -132 -93 -203t-260 -71zM407 76q87 0 144.5 22t86.5 64t29 104q0 61 -29 102t-86.5 62t-144.5 21h-8h-7q-85 0 -141.5 -21.5t-84.5 -62.5
t-28 -101q0 -61 28.5 -103t85 -64t140.5 -23h7.5h7.5zM355 -194v936h94v-936h-94z" />
    <glyph glyph-name="uni0445" unicode="&#x445;" horiz-adv-x="541" 
d="M9 0l228 296l-1 -49l-217 283h107l166 -218h-41l166 218h105l-220 -285l1 51l230 -296h-109l-175 232l39 -6l-172 -226h-107z" />
    <glyph glyph-name="uni0446" unicode="&#x446;" horiz-adv-x="690" 
d="M93 0v530h96v-446h290v446h96v-530h-482zM568 -123v128l24 -5h-113v84h180v-207h-91z" />
    <glyph glyph-name="uni0447" unicode="&#x447;" horiz-adv-x="609" 
d="M427 217q-42 -20 -86.5 -31.5t-91.5 -11.5q-96 0 -151.5 45t-55.5 139v172h96v-166q0 -57 35.5 -84t95.5 -27q38 0 78.5 10t79.5 28v-74zM420 0v530h96v-530h-96z" />
    <glyph glyph-name="uni0448" unicode="&#x448;" horiz-adv-x="941" 
d="M445 84l-22 -25v471h96v-471l-24 25h280l-23 -25v471h96v-530h-755v530h96v-471l-23 25h279z" />
    <glyph glyph-name="uni0449" unicode="&#x449;" horiz-adv-x="941" 
d="M445 84l-22 -25v471h96v-471l-24 25h280l-23 -25v471h96v-530h-755v530h96v-471l-23 25h279zM836 -113v138l23 -25h-112v84h179v-197h-90z" />
    <glyph glyph-name="uni044A" unicode="&#x44a;" horiz-adv-x="639" 
d="M406 351q100 0 151.5 -45.5t51.5 -127.5q0 -86 -57 -132t-163 -46h-223v446h-162v84h258v-179h144zM386 73q62 0 94 27t32 80q0 100 -126 100h-124v-207h124z" />
    <glyph glyph-name="uni044B" unicode="&#x44b;" horiz-adv-x="807" 
d="M617 0v530h96v-530h-96zM332 350q101 -1 153.5 -46t52.5 -127q0 -86 -57.5 -132.5t-164.5 -45.5l-223 1v530h96v-179zM309 72q64 -1 98 26t34 80q0 52 -33.5 76t-98.5 25l-120 2v-208z" />
    <glyph glyph-name="uni044C" unicode="&#x44c;" horiz-adv-x="575" 
d="M338 350q101 -1 154 -46t53 -127q0 -86 -58 -132.5t-164 -45.5l-230 1v530h96v-179zM315 72q65 -1 98.5 26t33.5 80q0 52 -33 76t-99 25l-126 2v-208z" />
    <glyph glyph-name="uni044D" unicode="&#x44d;" horiz-adv-x="575" 
d="M175 233v71h297v-71h-297zM246 536q82 0 147 -35t102 -96t37 -140q0 -78 -37 -140t-102 -97t-147 -35q-68 0 -125.5 22t-96.5 64l56 56q33 -32 73.5 -47.5t88.5 -15.5q58 0 103 24.5t71.5 68.5t26.5 100t-26.5 99.5t-71.5 68.5t-103 25q-48 0 -88.5 -16t-73.5 -48l-56 55
q39 43 96.5 65t125.5 22z" />
    <glyph glyph-name="uni044E" unicode="&#x44e;" horiz-adv-x="876" 
d="M93 0v530h96v-217h160v-89h-160v-224h-96zM562 -6q-78 0 -138.5 35t-95.5 96.5t-35 139.5q0 79 35 140.5t95.5 95.5t138.5 34q77 0 138 -34t96 -95.5t35 -140.5t-35 -140t-96 -96t-138 -35zM562 78q50 0 89 23.5t62 65t23 98.5t-23 98.5t-62 64.5t-89 23q-49 0 -88.5 -23
t-62.5 -64.5t-23 -98.5t23 -98.5t62.5 -65t88.5 -23.5z" />
    <glyph glyph-name="uni044F" unicode="&#x44f;" horiz-adv-x="612" 
d="M432 0v186l15 -18h-169q-106 0 -165.5 45t-59.5 131q0 92 63.5 139t169.5 47h232v-530h-86zM48 0l144 203h99l-140 -203h-103zM432 216v257l15 -27h-158q-66 0 -102 -24.5t-36 -80.5q0 -104 134 -104h162z" />
    <glyph glyph-name="uni0450" unicode="&#x450;" horiz-adv-x="631" 
d="M329 -6q-85 0 -149.5 35t-100 96t-35.5 140t34.5 140t95 95.5t136.5 34.5q77 0 136 -34t92.5 -95.5t33.5 -143.5q0 -6 -0.5 -14t-1.5 -15h-451v69h401l-39 -24q1 51 -21 91t-60.5 62.5t-89.5 22.5q-50 0 -89 -22.5t-61 -63t-22 -92.5v-16q0 -53 24.5 -94.5t68.5 -64.5
t101 -23q47 0 85.5 16t67.5 48l53 -62q-36 -42 -89.5 -64t-119.5 -22zM294 607l-168 130h122l136 -130h-90z" />
    <glyph glyph-name="uni0451" unicode="&#x451;" horiz-adv-x="628" 
d="M329 -6q-85 0 -149.5 35t-100 96t-35.5 140t34.5 140t95 95.5t136.5 34.5q77 0 136 -34t92.5 -95.5t33.5 -143.5q0 -6 -0.5 -14t-1.5 -15h-451v69h401l-39 -24q1 51 -21 91t-60.5 62.5t-89.5 22.5q-50 0 -89 -22.5t-61 -63t-22 -92.5v-16q0 -53 24.5 -94.5t68.5 -64.5
t101 -23q47 0 85.5 16t67.5 48l53 -62q-36 -42 -89.5 -64t-119.5 -22zM402 624q-21 0 -36 14.5t-15 36.5q0 23 15 37.5t36 14.5t36 -14.5t15 -37.5q0 -22 -15 -36.5t-36 -14.5zM216 624q-21 0 -36 14.5t-15 36.5q0 23 15 37.5t36 14.5t36 -14.5t15 -37.5q0 -22 -15 -36.5
t-36 -14.5z" />
    <glyph glyph-name="uni0452" unicode="&#x452;" horiz-adv-x="675" 
d="M427 -200q-33 0 -63.5 8t-51.5 24l31 74q30 -25 78 -25q38 0 59 23.5t21 69.5v320q0 77 -38 116t-106 39q-50 0 -88 -20t-58.5 -59t-20.5 -97v-273h-96v742h91v-355l-15 38q26 52 80 81t126 29q65 0 114.5 -25t78 -76t28.5 -129v-329q0 -81 -44 -128.5t-126 -47.5z
M-10 601v68h435v-68h-435z" />
    <glyph glyph-name="uni0453" unicode="&#x453;" horiz-adv-x="488" 
d="M93 0v530h390v-84h-317l23 22v-468h-96zM216 605l136 130h122l-168 -130h-90z" />
    <glyph glyph-name="uni0454" unicode="&#x454;" horiz-adv-x="577" 
d="M401 297v-72h-298v72h298zM330 -6q-83 0 -147.5 34.5t-101.5 96.5t-37 140q0 79 37 140t101.5 96.5t147.5 35.5q69 0 126 -22t96 -65l-56 -55q-33 32 -74 47.5t-89 15.5q-57 0 -102.5 -25t-71.5 -68.5t-26 -99.5t26 -100t71.5 -68.5t102.5 -24.5q48 0 89 15.5t74 48.5
l56 -56q-39 -42 -96 -64t-126 -22z" />
    <glyph glyph-name="uni0455" unicode="&#x455;" horiz-adv-x="536" 
d="M262 -6q-66 0 -125.5 18t-93.5 44l40 76q34 -23 84 -39t102 -16q67 0 96.5 19t29.5 53q0 25 -18 39t-47.5 21t-65.5 12.5t-72 14t-66 24t-48 43t-18 73.5q0 48 27 84t76.5 55.5t117.5 19.5q52 0 105.5 -12.5t87.5 -35.5l-41 -76q-36 24 -75 33t-78 9q-63 0 -94 -20.5
t-31 -52.5q0 -27 18.5 -41.5t48 -22.5t65.5 -13.5t72 -14t65.5 -23.5t48 -42t18.5 -72q0 -48 -28 -83t-79 -54.5t-122 -19.5z" />
    <glyph glyph-name="uni0456" unicode="&#x456;" horiz-adv-x="283" 
d="M93 0v530h96v-530h-96zM141 632q-28 0 -46.5 18t-18.5 44q0 27 18.5 45t46.5 18t46.5 -17.5t18.5 -43.5q0 -27 -18 -45.5t-47 -18.5z" />
    <glyph glyph-name="uni0457" unicode="&#x457;" horiz-adv-x="279" 
d="M91 0v530h96v-530h-96zM210 625q-21 0 -35 14.5t-14 35.5q0 22 14 36.5t35 14.5t35.5 -14.5t14.5 -36.5q0 -21 -14.5 -35.5t-35.5 -14.5zM68 625q-21 0 -35.5 14.5t-14.5 35.5q0 22 14.5 36.5t35.5 14.5t35 -14.5t14 -36.5q0 -21 -14 -35.5t-35 -14.5z" />
    <glyph glyph-name="uni0458" unicode="&#x458;" horiz-adv-x="284" 
d="M21 -200q-33 0 -63.5 8t-51.5 24l31 74q30 -25 78 -25q38 0 58.5 23.5t20.5 69.5v556h96v-554q0 -81 -43.5 -128.5t-125.5 -47.5zM142 632q-28 0 -46.5 18t-18.5 44q0 27 18.5 45t46.5 18t46.5 -17.5t18.5 -43.5q0 -27 -18 -45.5t-47 -18.5z" />
    <glyph glyph-name="uni0459" unicode="&#x459;" horiz-adv-x="933" 
d="M5 1l6 81q7 -1 13 -2t11 -1q32 0 50.5 22t27.5 58.5t13 82.5t6 92l9 196h407v-530h-96v474l23 -28h-272l22 29l-7 -147q-3 -70 -11 -131t-24.5 -107t-45 -72t-73.5 -26q-13 0 -27.5 2.5t-31.5 6.5zM696 350q101 -1 154 -46t53 -127q0 -86 -58 -132.5t-164 -45.5l-230 1
v530h96v-179zM673 72q65 -1 98.5 26t33.5 80q0 52 -33 76t-99 25l-126 2v-208z" />
    <glyph glyph-name="uni045A" unicode="&#x45a;" horiz-adv-x="952" 
d="M729 324q95 0 146 -40.5t51 -115.5q0 -79 -56.5 -123.5t-156.5 -44.5h-232v241h-292v-241h-96v530h96v-206h292v206h96v-206h152zM709 71q57 0 88 24t31 67q0 41 -30.5 62.5t-88.5 21.5h-132v-175h132z" />
    <glyph glyph-name="uni045B" unicode="&#x45b;" horiz-adv-x="674" 
d="M-36 605v57h464v-57h-464zM376 535q65 0 114.5 -25t78 -76t28.5 -129v-305h-96v294q0 77 -38 116t-106 39q-50 0 -88 -20t-58.5 -59t-20.5 -97v-273h-96v742h96v-355l-20 38q26 52 80 81t126 29z" />
    <glyph glyph-name="uni045C" unicode="&#x45c;" horiz-adv-x="598" 
d="M477 0l-205 258l79 48l239 -306h-113zM93 0v530h96v-530h-96zM160 224v82h175v-82h-175zM359 254l-89 12l203 264h103zM233 607l136 130h122l-168 -130h-90z" />
    <glyph glyph-name="uni045D" unicode="&#x45d;" horiz-adv-x="694" 
d="M93 0v530h96v-386l325 386h87v-530h-96v386l-324 -386h-88zM326 607l-168 130h122l136 -130h-90z" />
    <glyph glyph-name="uni045E" unicode="&#x45e;" horiz-adv-x="571" 
d="M120 -200q-38 0 -74 12.5t-62 36.5l41 72q20 -19 44 -29t51 -10q35 0 58 18t43 64l33 73l10 12l208 481h94l-257 -583q-23 -56 -51.5 -88t-62.5 -45.5t-75 -13.5zM246 -17l-242 547h100l206 -472zM272 599q-73 0 -114.5 35.5t-42.5 102.5h65q1 -38 25.5 -60t65.5 -22
t66 22t26 60h67q-1 -67 -43 -102.5t-115 -35.5z" />
    <glyph glyph-name="uni045F" unicode="&#x45f;" horiz-adv-x="646" 
d="M552 530v-530h-183v-123h-91v123h-185v530h96v-446h267v446h96z" />
    <glyph glyph-name="uni0462" unicode="&#x462;" horiz-adv-x="811" 
d="M206 0v742h98v-290h212q125 0 190 -56t65 -165q0 -111 -70.5 -171t-202.5 -60h-292zM304 79h191q87 0 131 38t44 111q0 145 -175 145h-191v-294zM19 555v74h499v-74h-499z" />
    <glyph glyph-name="uni0463" unicode="&#x463;" horiz-adv-x="613" 
d="M0 483v70h423v-70h-423zM376 350q101 -1 154 -46t53 -127q0 -86 -58 -132.5t-165 -45.5l-229 1v742h96v-391zM353 72q65 -1 98.5 26t33.5 80q0 52 -33 76t-99 25l-126 2v-208z" />
    <glyph glyph-name="uni046A" unicode="&#x46a;" horiz-adv-x="900" 
d="M18 0l69 158q31 76 69 123.5t84.5 70t99.5 22.5h5l-244 260v66h699v-63l-246 -263h5q55 0 102 -23t85.5 -70.5t67.5 -122.5l68 -158h-103l-56 134q-33 87 -81 126.5t-110 39.5h-35v-300h-94v300h-33q-63 0 -111.5 -39t-81.5 -127l-56 -134h-103zM213 623l237 -249h1
l236 249h-474z" />
    <glyph glyph-name="uni046B" unicode="&#x46b;" horiz-adv-x="704" 
d="M15 0l49 116q24 60 53 97.5t65 55t81 17.5h179q46 0 82 -17.5t65 -55t51 -97.5l49 -116h-94l-39 95q-22 65 -54 94t-81 29h-29v-218h-83v218h-26q-47 0 -80 -29t-56 -94l-37 -95h-95zM350 285l173 178h-345zM272 267l-195 202v61h546v-61l-196 -202h-155z" />
    <glyph glyph-name="uni0472" unicode="&#x472;" horiz-adv-x="848" 
d="M424 708q80 0 147.5 -26.5t118 -75t78 -113.5t27.5 -143t-27.5 -143t-78 -113.5t-118 -75t-147.5 -26.5q-81 0 -149 27t-118 75.5t-78 113.5t-28 142t28 142t78 113.5t118 75.5t149 27zM424 619q-53 0 -99.5 -17t-82.5 -47.5t-58.5 -72.5t-28.5 -92h537q-6 50 -29 92
t-58.5 72.5t-81.5 47.5t-99 17zM424 81q53 0 99 17t81.5 47.5t58.5 72.5t29 93h-537q6 -51 28.5 -93t58.5 -72.5t82.5 -47.5t99.5 -17z" />
    <glyph glyph-name="uni0473" unicode="&#x473;" horiz-adv-x="650" 
d="M325 535q82 0 145 -34t99.5 -95.5t36.5 -140.5t-36.5 -140t-99.5 -96t-145 -35q-81 0 -144.5 35t-100 96t-36.5 140t36.5 140.5t100 95.5t144.5 34zM325 459q-50 0 -89.5 -20t-64.5 -55.5t-33 -84.5h373q-6 48 -31.5 84t-65 56t-89.5 20zM325 71q50 0 89.5 20t65 56
t31.5 84h-373q7 -48 32.5 -84t65.5 -56t89 -20z" />
    <glyph glyph-name="uni0474" unicode="&#x474;" horiz-adv-x="761" 
d="M302 0l-288 700h109l229 -555l147 404q38 100 95 136.5t154 13.5l-11 -98q-62 15 -96.5 -11t-62.5 -102l-178 -488h-98z" />
    <glyph glyph-name="uni0475" unicode="&#x475;" horiz-adv-x="596" 
d="M237 0l-232 530h106l205 -479h-58l139 369q20 54 46 82t62 34t87 -7l-10 -95q-30 8 -48.5 5t-32 -23t-29.5 -62l-139 -354h-96z" />
    <glyph glyph-name="uni048A" unicode="&#x48a;" horiz-adv-x="852" 
d="M109 0v700h99v-540l414 540h92v-700h-98v539l-415 -539h-92zM410 749q-82 0 -126.5 36t-45.5 101h71q1 -39 28 -60.5t73 -21.5q45 0 72.5 21.5t28.5 60.5h70q-1 -65 -45.5 -101t-125.5 -36zM664 -153l44 179l39 -26h-131v87h199l-71 -240h-80z" />
    <glyph glyph-name="uni048B" unicode="&#x48b;" horiz-adv-x="716" 
d="M93 0v530h96v-386l325 386h87v-530h-96v386l-324 -386h-88zM341 601q-68 0 -114 36.5t-48 99.5h65q2 -37 30 -58.5t67 -21.5t67.5 21.5t29.5 58.5h65q-2 -63 -48 -99.5t-114 -36.5zM549 -113l36 138l58 -25h-138v84h180l-58 -197h-78z" />
    <glyph glyph-name="uni048C" unicode="&#x48c;" horiz-adv-x="739" 
d="M134 0v742h99v-290h212q124 0 189 -56t65 -165q0 -111 -70.5 -171t-202.5 -60h-292zM233 79h190q87 0 131 38t44 111q0 145 -175 145h-190v-294zM31 555v74h416v-74h-416z" />
    <glyph glyph-name="uni048D" unicode="&#x48d;" horiz-adv-x="606" 
d="M125 0v530h96v-192l149 -1q101 -1 154 -41.5t53 -122.5q0 -86 -58 -130.5t-165 -43.5zM347 72q65 -1 98.5 24t33.5 78q0 52 -33 72t-99 21l-126 1v-195zM22 398v71h395v-71h-395z" />
    <glyph glyph-name="uni048E" unicode="&#x48e;" horiz-adv-x="733" 
d="M109 0v700h274q91 0 156 -29.5t100 -85t35 -133.5t-35 -133.5t-100 -85t-156 -29.5h-200l26 26v-230h-100zM209 262l-26 28h196q96 0 145.5 42t49.5 120t-49.5 119.5t-145.5 41.5h-196l26 29v-380zM661 129l-55 -45l-263 344l55 45z" />
    <glyph glyph-name="uni048F" unicode="&#x48f;" horiz-adv-x="699" 
d="M388 -6q-71 0 -124 32t-81.5 92.5t-28.5 145.5q0 86 28 146.5t80.5 92.5t125.5 32q72 0 130 -34t92 -94.5t34 -142.5q0 -81 -34 -142t-92 -94.5t-130 -33.5zM94 -194v724h92v-143l-6 -123l10 -124v-334h-96zM369 78q52 0 92.5 22.5t64 64.5t23.5 99t-23.5 98.5t-64 65
t-92.5 23.5t-92.5 -23.5t-64 -65t-23.5 -98.5t23.5 -99t64 -64.5t92.5 -22.5zM633 -21l-54 -42l-200 251l55 43z" />
    <glyph glyph-name="uni0490" unicode="&#x490;" horiz-adv-x="581" 
d="M109 0v700h367v144h92v-231h-360v-613h-99z" />
    <glyph glyph-name="uni0491" unicode="&#x491;" horiz-adv-x="466" 
d="M93 0v530h277v108h90v-192h-271v-446h-96z" />
    <glyph glyph-name="uni0492" unicode="&#x492;" horiz-adv-x="618" 
d="M30 286v75h497v-75h-497zM136 0v700h459l-1 -87h-385l24 25l1 -638h-98z" />
    <glyph glyph-name="uni0493" unicode="&#x493;" horiz-adv-x="516" 
d="M43 195v68h388v-68h-388zM109 0v530h390v-84h-317l23 22v-468h-96z" />
    <glyph glyph-name="uni0494" unicode="&#x494;" horiz-adv-x="703" 
d="M109 0v700h479v-87h-405l25 26v-639h-99zM320 -137l17 83q62 -13 111.5 7.5t79 67t29.5 112.5q0 53 -20.5 92t-56 62t-81.5 28t-97 -9t-103 -49l-4 86q70 37 137 48.5t125.5 -0.5t103 -44.5t70 -85t25.5 -121.5q0 -72 -26 -129.5t-72.5 -95.5t-107 -52.5t-130.5 0.5z" />
    <glyph glyph-name="uni0495" unicode="&#x495;" horiz-adv-x="601" 
d="M93 0v530h379v-84h-306l23 25v-471h-96zM247 -192l20 83q66 -11 113.5 5.5t73.5 56t26 95.5q0 52 -20 86t-53.5 51t-74 18.5t-82.5 -11t-79 -37.5l-2 86q60 30 119.5 40t112 -1t92 -40.5t62.5 -76.5t23 -111t-24.5 -115.5t-68.5 -85.5t-104.5 -45.5t-133.5 2.5z" />
    <glyph glyph-name="uni0496" unicode="&#x496;" horiz-adv-x="1067" 
d="M893 0l-219 345l84 50l252 -395h-117zM534 308v88h205v-88h-205zM764 339l-93 14l215 347h107zM136 0h-117l251 395l85 -50zM564 0h-98v700h98v-700zM496 308h-206v88h206v-88zM266 339l-230 361h107l214 -347zM961 -153v179l25 -26h-93v87h161v-240h-93z" />
    <glyph glyph-name="uni0497" unicode="&#x497;" horiz-adv-x="882" 
d="M722 0l-169 258l79 48l204 -306h-114zM443 224v82h172v-82h-172zM641 254l-91 12l169 264h103zM127 0h-114l203 306l79 -48zM472 0h-96v530h96v-530zM405 224h-171v82h171v-82zM208 254l-181 276h102l169 -264zM789 -113v137l23 -24h-90v82h154v-195h-87z" />
    <glyph glyph-name="uni0498" unicode="&#x498;" horiz-adv-x="642" 
d="M32 76l35 74q46 -36 101.5 -54t110.5 -18.5t101.5 14.5t74.5 45t28 74q0 54 -43.5 82t-120.5 28h-156v81h149q67 0 104.5 27.5t37.5 76.5q0 37 -22.5 62.5t-61 38.5t-87 13.5t-99.5 -13t-98 -42.5l-32 82q64 36 133.5 50.5t134.5 9t117.5 -30t84 -64t31.5 -94.5
q0 -50 -26 -88.5t-72 -59t-107 -20.5l4 27q70 0 121.5 -22.5t80 -63.5t28.5 -95q0 -51 -26 -90.5t-70.5 -66t-101 -38.5t-118.5 -8t-122.5 24t-113.5 59zM350 23v-176h-93v176h93z" />
    <glyph glyph-name="uni0499" unicode="&#x499;" horiz-adv-x="544" 
d="M248 -7q70 0 124.5 20.5t86.5 57t32 84.5q0 60 -51 95t-140 35l-4 -23q52 0 92 17t64 46.5t24 67.5q0 45 -31.5 78t-85.5 50.5t-123 15.5q-46 -1 -92.5 -13.5t-94.5 -35.5l26 -75q43 21 84.5 31t81.5 11q41 0 71.5 -9t47.5 -26t17 -41q0 -22 -14.5 -38.5t-40.5 -24.5
t-61 -8h-90v-69h96q59 0 92 -20t33 -57q0 -26 -18 -45.5t-51.5 -30.5t-79.5 -11q-50 0 -99 13.5t-87 37.5l-29 -73q45 -29 102.5 -44.5t117.5 -15.5zM297 21h-91v-134h91v134z" />
    <glyph glyph-name="uni049A" unicode="&#x49a;" horiz-adv-x="755" 
d="M580 0l-254 345l81 50l287 -395h-114zM109 0v700h98v-700h-98zM177 308v88h227v-88h-227zM416 339l-92 14l251 347h107zM648 -153v179l25 -26h-93v87h161v-240h-93z" />
    <glyph glyph-name="uni049B" unicode="&#x49b;" horiz-adv-x="598" 
d="M477 0l-205 258l79 48l239 -306h-113zM93 0v530h96v-530h-96zM160 224v82h175v-82h-175zM359 254l-89 12l203 264h103zM544 -113v137l23 -24h-90v82h154v-195h-87z" />
    <glyph glyph-name="uni049C" unicode="&#x49c;" horiz-adv-x="740" 
d="M605 0l-231 345l82 50l266 -395h-117zM109 0v700h98v-700h-98zM177 308v88h260v-88h-260zM277 168v369h75v-369h-75zM464 339l-92 14l224 347h107z" />
    <glyph glyph-name="uni049D" unicode="&#x49d;" horiz-adv-x="614" 
d="M490 0l-176 258l77 48l211 -306h-112zM91 0v530h96v-530h-96zM159 224v82h213v-82h-213zM400 254l-88 12l174 264h101zM237 126v280h70v-280h-70z" />
    <glyph glyph-name="uni049E" unicode="&#x49e;" horiz-adv-x="733" 
d="M35 541v71h363v-71h-363zM602 0l-254 345l81 50l287 -395h-114zM131 0v700h98v-700h-98zM199 308v88h227v-88h-227zM438 339l-92 14l251 347h107z" />
    <glyph glyph-name="uni049F" unicode="&#x49f;" horiz-adv-x="597" 
d="M0 601v69l342 -1v-68h-342zM476 0l-205 258l79 48l240 -306h-114zM94 0v742h96v-742h-96zM161 224v82h173v-82h-173zM359 254l-90 12l204 264h103z" />
    <glyph glyph-name="uni04A0" unicode="&#x4a0;" horiz-adv-x="827" 
d="M13 613v87h310v-87h-310zM697 0l-255 345l81 50l287 -395h-113zM225 0v700h98v-700h-98zM293 308v88h227v-88h-227zM532 339l-92 14l251 347h107z" />
    <glyph glyph-name="uni04A1" unicode="&#x4a1;" horiz-adv-x="670" 
d="M4 447v83h258v-83h-258zM550 0l-205 258l79 48l239 -306h-113zM166 0v530h96v-530h-96zM233 224v82h175v-82h-175zM432 254l-90 12l203 264h104z" />
    <glyph glyph-name="uni04A2" unicode="&#x4a2;" horiz-adv-x="847" 
d="M611 700h100v-700h-100v700zM209 0h-100v700h100v-700zM620 312h-421v87h421v-87zM728 -153v179l25 -26h-138v87h205v-240h-92z" />
    <glyph glyph-name="uni04A3" unicode="&#x4a3;" horiz-adv-x="701" 
d="M93 0v530h96v-225h302v225h96v-530h-96v222h-302v-222h-96zM580 -113v138l23 -25h-112v84h179v-197h-90z" />
    <glyph glyph-name="uni04A4" unicode="&#x4a4;" horiz-adv-x="1087" 
d="M611 700h100v-700h-100v700zM209 0h-100v700h100v-700zM620 312h-421v87h421v-87zM615 0v700h459l-1 -87h-384l24 25l1 -638h-99z" />
    <glyph glyph-name="uni04A5" unicode="&#x4a5;" horiz-adv-x="886" 
d="M93 0v530h96v-225h302v225h96v-530h-96v222h-302v-222h-96zM491 0v530h390v-84h-317l23 22v-468h-96z" />
    <glyph glyph-name="uni04A6" unicode="&#x4a6;" horiz-adv-x="1196" 
d="M821 -137l17 83q47 -10 86.5 -1t69.5 35t47 65t17 88q0 53 -19.5 91.5t-55 61t-81 28t-97 -8t-104.5 -48.5l-3 88q70 36 136.5 47t125 -1t103 -45.5t69.5 -85t25 -120.5q0 -72 -26.5 -129.5t-72.5 -96t-107 -52.5t-130 1zM109 0v700h603v-700h-98v639l24 -26h-455l25 26
v-639h-99z" />
    <glyph glyph-name="uni04A7" unicode="&#x4a7;" horiz-adv-x="976" 
d="M93 0v530h477v-530h-96v470l23 -24h-331l23 24v-470h-96zM624 -192l20 83q67 -11 114 5.5t73.5 56t26.5 95.5q0 52 -20 86t-53.5 51t-74.5 18.5t-82.5 -11t-78.5 -37.5l-3 86q61 30 120 40t111.5 -1t92.5 -40.5t63 -76.5t23 -111t-24.5 -115.5t-68.5 -85.5t-105 -45.5
t-134 2.5z" />
    <glyph glyph-name="uni04A8" unicode="&#x4a8;" horiz-adv-x="974" 
d="M447 -8q-87 0 -158 27.5t-123 78t-80.5 120t-28.5 152.5q0 103 46.5 192t129.5 144l78 -46q-72 -50 -113 -128t-41 -166t39 -156t108 -105.5t161 -37.5q75 0 135 24.5t104 69.5t67.5 107t23.5 136q0 66 -20.5 114t-58.5 74.5t-90 26.5q-53 0 -92 -27.5t-60.5 -77
t-21.5 -116.5q0 -91 35 -161.5t95.5 -113.5t141 -54t172.5 15l9 -74q-87 -24 -169 -17.5t-152 38t-122 85.5t-81.5 125.5t-29.5 157.5q0 91 35 160.5t97.5 109t144.5 39.5q80 0 140.5 -37t94 -103t33.5 -152q0 -70 -22 -134t-63 -117t-97 -91.5t-123.5 -60t-143.5 -21.5z
" />
    <glyph glyph-name="uni04A9" unicode="&#x4a9;" horiz-adv-x="806" 
d="M367 -8q-95 0 -167 36.5t-112.5 102t-40.5 152.5q0 79 36.5 146t102.5 109l75 -42q-56 -40 -87 -96t-31 -120q0 -65 30 -113.5t83.5 -75.5t125.5 -27q79 0 138 31t92 87t33 129q0 44 -16 76.5t-45 50.5t-67 18q-40 0 -70 -19t-46 -53t-16 -80q0 -67 27.5 -117.5t76 -81
t112.5 -38.5t137 10l6 -70q-71 -19 -137.5 -14.5t-123.5 28.5t-100.5 64.5t-67.5 95.5t-24 121q0 71 28.5 124t79.5 82.5t119 29.5q67 0 116.5 -28t76.5 -77t27 -116q0 -69 -28.5 -128t-79 -103.5t-117.5 -69t-146 -24.5z" />
    <glyph glyph-name="uni04AA" unicode="&#x4aa;" horiz-adv-x="718" 
d="M422 -8q-80 0 -147.5 26.5t-117 75t-77.5 113.5t-28 143t28 143t78 113.5t117.5 75t147.5 26.5q81 0 149.5 -27.5t116.5 -81.5l-65 -63q-40 42 -90 62.5t-107 20.5q-59 0 -109.5 -20t-87.5 -56t-57.5 -85.5t-20.5 -107.5t20.5 -107.5t57.5 -85.5t87.5 -56t109.5 -20
q57 0 107 20.5t90 63.5l65 -63q-48 -54 -116.5 -82t-150.5 -28zM453 23v-176h-93v176h93z" />
    <glyph glyph-name="uni04AB" unicode="&#x4ab;" horiz-adv-x="571" 
d="M324 -6q-81 0 -144.5 35t-99.5 96t-36 140t36 140t99.5 95.5t144.5 34.5q72 0 128.5 -28.5t87.5 -84.5l-73 -47q-26 39 -63.5 57.5t-80.5 18.5q-52 0 -93 -23t-65 -64.5t-24 -98.5t24 -99t65 -65t93 -23q43 0 80.5 18.5t63.5 57.5l73 -46q-31 -55 -87.5 -84.5
t-128.5 -29.5zM361 21v-134h-91v134h91z" />
    <glyph glyph-name="uni04AC" unicode="&#x4ac;" horiz-adv-x="603" 
d="M252 0v639l25 -26h-264v87h577v-87h-264l24 26v-639h-98zM365 -153v179l25 -26h-138v87h205v-240h-92z" />
    <glyph glyph-name="uni04AD" unicode="&#x4ad;" horiz-adv-x="493" 
d="M198 0v471l24 -25h-218v84h484v-84h-217l23 25v-471h-96zM287 -113v138l23 -25h-112v84h179v-197h-90z" />
    <glyph glyph-name="Ustraitcy" unicode="&#x4ae;" horiz-adv-x="667" 
d="M284 0v268l23 -62l-300 494h106l253 -417h-58l254 417h99l-300 -494l22 62v-268h-99z" />
    <glyph glyph-name="ustraitcy" unicode="&#x4af;" horiz-adv-x="574" 
d="M258 -48l-252 578h101l206 -480h-49l211 480h93l-253 -578h-57zM335 47v-241h-97v241h97z" />
    <glyph glyph-name="Ustraitstrokecy" unicode="&#x4b0;" horiz-adv-x="667" 
d="M117 216v68h428v-68h-428zM284 0v268l23 -62l-300 494h106l253 -417h-58l254 417h99l-300 -494l22 62v-268h-99z" />
    <glyph glyph-name="ustraitstrokecy" unicode="&#x4b1;" horiz-adv-x="574" 
d="M70 -28v67h431v-67h-431zM258 -48l-252 578h101l206 -480h-49l211 480h93l-253 -578h-57zM335 47v-241h-97v241h97z" />
    <glyph glyph-name="uni04B2" unicode="&#x4b2;" horiz-adv-x="705" 
d="M34 700h115l183 -256l183 256h117l-237 -336l256 -364h-118l-201 279l-200 -279h-115l255 360zM601 -153v179l25 -26h-93v87h161v-240h-93z" />
    <glyph glyph-name="uni04B3" unicode="&#x4b3;" horiz-adv-x="541" 
d="M9 0l228 296l-1 -49l-217 283h107l166 -218h-41l166 218h105l-220 -285l1 51l230 -296h-109l-175 232l39 -6l-172 -226h-107zM490 -113v137l23 -24h-90v82h154v-195h-87z" />
    <glyph glyph-name="uni04B4" unicode="&#x4b4;" horiz-adv-x="974" 
d="M254 0v639l24 -26h-264v87h549v-87h-236l25 26v-639h-98zM254 -1v700h98v-613h391v613h99v-700h-588zM857 -160v185l23 -26h-137v87h207v-246h-93z" />
    <glyph glyph-name="uni04B5" unicode="&#x4b5;" horiz-adv-x="771" 
d="M199 0v530h96v-446h268v446h96v-530h-460zM645 -113v138l22 -25h-104v84h172v-197h-90zM450 530v-84h-445v84h445z" />
    <glyph glyph-name="uni04B6" unicode="&#x4b6;" horiz-adv-x="763" 
d="M545 284q-59 -25 -114.5 -37.5t-107.5 -12.5q-128 0 -198.5 62t-70.5 177v227h98v-216q0 -78 48 -120t134 -42q51 0 104.5 13t104.5 38zM528 0v700h99v-700h-99zM642 -153v179l25 -26h-138v87h205v-240h-92z" />
    <glyph glyph-name="uni04B7" unicode="&#x4b7;" horiz-adv-x="634" 
d="M427 217q-42 -20 -86.5 -31.5t-91.5 -11.5q-96 0 -151.5 45t-55.5 139v172h96v-166q0 -57 35.5 -84t95.5 -27q38 0 78.5 10t79.5 28v-74zM420 0v530h96v-530h-96zM509 -113v138l23 -25h-112v84h179v-197h-90z" />
    <glyph glyph-name="uni04B8" unicode="&#x4b8;" horiz-adv-x="736" 
d="M295 94v370h75v-370h-75zM544 284q-58 -25 -114 -37.5t-108 -12.5q-128 0 -198.5 62t-70.5 177v227h99v-216q0 -78 47.5 -120t133.5 -42q51 0 104.5 13t105.5 38zM528 0v700h98v-700h-98z" />
    <glyph glyph-name="uni04B9" unicode="&#x4b9;" horiz-adv-x="609" 
d="M240 75v284h71v-284h-71zM426 217q-42 -20 -86.5 -31.5t-91.5 -11.5q-96 0 -151.5 45t-55.5 139v172h96v-166q0 -57 35.5 -84t95.5 -27q38 0 78.5 10t80.5 28zM419 0v530h96v-530h-96z" />
    <glyph glyph-name="uni04BA" unicode="&#x4ba;" horiz-adv-x="736" 
d="M584 0v216q0 79 -47.5 120.5t-134.5 41.5q-50 0 -104 -13t-105 -38l-2 89q59 25 115 37.5t107 12.5q128 0 198.5 -62t70.5 -177v-227h-98zM109 0v700h99v-700h-99z" />
    <glyph glyph-name="uni04BB" unicode="&#x4bb;" horiz-adv-x="674" 
d="M376 535q65 0 114.5 -25t77.5 -76t28 -129v-305h-96v294q0 77 -37.5 116t-105.5 39q-51 0 -89 -20t-58.5 -59t-20.5 -97v-273h-96v742h96v-355l-19 38q26 52 80 81t126 29z" />
    <glyph glyph-name="uni04BC" unicode="&#x4bc;" horiz-adv-x="989" 
d="M596 -8q-72 0 -138 24t-117.5 69.5t-81 112t-29.5 150.5q0 83 29 149.5t79 113.5t115.5 72t137.5 25t136.5 -25t114 -71.5t78 -112t28.5 -146.5q0 -12 -1.5 -26t-3.5 -26h-738q-59 0 -98 23t-58.5 62.5t-16.5 88t29 99.5l94 -19q-20 -30 -26 -60t2 -54.5t30 -39.5t56 -15
h654l-25 -36q1 61 -18.5 110.5t-55 85.5t-81.5 55t-100 19t-101 -19.5t-83 -55.5t-56.5 -85.5t-20.5 -109.5q0 -63 21.5 -112.5t59 -84.5t85 -53.5t100.5 -18.5q54 0 109 21t103 64l72 -65q-63 -55 -137 -82t-147 -27z" />
    <glyph glyph-name="uni04BD" unicode="&#x4bd;" horiz-adv-x="771" 
d="M230 233h-65q-65 0 -101.5 26t-41.5 71.5t22 101.5l80 -17q-19 -31 -19 -56.5t18 -41t54 -15.5h53v-69zM479 -6q-88 0 -154 35t-103 96t-37 140t35.5 140t97.5 95.5t141 34.5t140.5 -34t96 -95.5t34.5 -143.5q0 -6 -0.5 -14t-2.5 -15h-464v69h413l-40 -24q1 51 -22 91
t-63 62.5t-92 22.5t-92 -22.5t-63 -63t-23 -92.5v-16q0 -53 25.5 -94.5t70.5 -64.5t104 -23q49 0 89 16t70 48l54 -62q-37 -42 -92 -64t-123 -22z" />
    <glyph glyph-name="uni04BE" unicode="&#x4be;" horiz-adv-x="989" 
d="M596 -8q-72 0 -138 24t-117.5 69.5t-81 112t-29.5 150.5q0 83 29 149.5t79 113.5t115.5 72t137.5 25t136.5 -25t114 -71.5t78 -112t28.5 -146.5q0 -12 -1.5 -26t-3.5 -26h-738q-59 0 -98 23t-58.5 62.5t-16.5 88t29 99.5l94 -19q-20 -30 -26 -60t2 -54.5t30 -39.5t56 -15
h654l-25 -36q1 61 -18.5 110.5t-55 85.5t-81.5 55t-100 19t-101 -19.5t-83 -55.5t-56.5 -85.5t-20.5 -109.5q0 -63 21.5 -112.5t59 -84.5t85 -53.5t100.5 -18.5q54 0 109 21t103 64l72 -65q-63 -55 -137 -82t-147 -27zM644 23v-176h-93v176h93z" />
    <glyph glyph-name="uni04BF" unicode="&#x4bf;" horiz-adv-x="771" 
d="M230 233h-65q-65 0 -101.5 26t-41.5 71.5t22 101.5l80 -17q-19 -31 -19 -56.5t18 -41t54 -15.5h53v-69zM479 -6q-88 0 -154 35t-103 96t-37 140t35.5 140t97.5 95.5t141 34.5t140.5 -34t96 -95.5t34.5 -143.5q0 -6 -0.5 -14t-2.5 -15h-464v69h413l-40 -24q1 51 -22 91
t-63 62.5t-92 22.5t-92 -22.5t-63 -63t-23 -92.5v-16q0 -53 25.5 -94.5t70.5 -64.5t104 -23q49 0 89 16t70 48l54 -62q-37 -42 -92 -64t-123 -22zM510 21v-134h-91v134h91z" />
    <glyph glyph-name="uni04C0" unicode="&#x4c0;" horiz-adv-x="318" 
d="M109 0v700h100v-700h-100z" />
    <glyph glyph-name="uni04C1" unicode="&#x4c1;" horiz-adv-x="1029" 
d="M893 0l-219 345l84 50l252 -395h-117zM534 308v88h205v-88h-205zM764 339l-93 14l215 347h107zM136 0h-117l251 395l85 -50zM564 0h-98v700h98v-700zM496 308h-206v88h206v-88zM266 339l-230 361h107l214 -347zM516 749q-82 0 -126.5 36t-45.5 101h71q1 -39 28 -60.5
t73 -21.5q45 0 72.5 21.5t28.5 60.5h70q-1 -65 -45.5 -101t-125.5 -36z" />
    <glyph glyph-name="uni04C2" unicode="&#x4c2;" horiz-adv-x="849" 
d="M722 0l-169 258l79 48l204 -306h-114zM443 224v82h172v-82h-172zM641 254l-91 12l169 264h103zM127 0h-114l203 306l79 -48zM472 0h-96v530h96v-530zM405 224h-171v82h171v-82zM208 254l-181 276h102l169 -264zM424 599q-73 0 -114.5 35.5t-42.5 102.5h65q1 -38 25.5 -60
t65.5 -22t66 22t26 60h67q-1 -67 -43 -102.5t-115 -35.5z" />
    <glyph glyph-name="uni04C3" unicode="&#x4c3;" horiz-adv-x="714" 
d="M109 0v700h98v-700h-98zM177 308v88h212v-88h-212zM419 343l-95 10l250 347h107zM525 -202q-60 0 -118 30l26 76q40 -20 72 -20q36 0 57 22t21 63q0 34 -20.5 78t-56.5 92.5t-82 98t-97 93.5l78 55q83 -80 147.5 -154.5t101.5 -141.5t37 -124q0 -78 -45 -123t-121 -45z
" />
    <glyph glyph-name="uni04C4" unicode="&#x4c4;" horiz-adv-x="598" 
d="M409 -200q-57 0 -115 29l27 72q39 -21 73 -21q37 0 59.5 23t22.5 62q0 41 -25 91t-70.5 102t-104.5 98l75 53q69 -58 118.5 -118.5t76 -118.5t26.5 -112q0 -48 -20 -84.5t-57 -56t-86 -19.5zM93 0v530h96v-530h-96zM160 224v83h175v-83h-175zM359 254l-89 12l203 264h103
z" />
    <glyph glyph-name="uni04C6" unicode="&#x4c6;" horiz-adv-x="663" 
d="M5 1l6 81q7 -1 13 -2t11 -1q32 0 50.5 22t27.5 58.5t13 82.5t6 92l9 196h407v-530h-96v474l23 -28h-272l22 29l-7 -147q-3 -70 -11 -131t-24.5 -107t-45 -72t-73.5 -26q-13 0 -27.5 2.5t-31.5 6.5zM496 -113l36 138l58 -25h-138v84h180l-58 -197h-78z" />
    <glyph glyph-name="uni04C7" unicode="&#x4c7;" horiz-adv-x="815" 
d="M421 -167l29 73q26 -17 53.5 -21.5t51 2.5t38.5 27t15 52v340h-400v-306h-99v700h99v-306h400v306h98v-739q0 -60 -28 -97.5t-71.5 -53t-93 -10t-92.5 32.5z" />
    <glyph glyph-name="uni04C8" unicode="&#x4c8;" horiz-adv-x="687" 
d="M428 -200q-33 0 -64 8.5t-53 24.5l30 73q29 -25 74 -25q39 0 60.5 23.5t21.5 69.5v248h-308v-222h-96v530h96v-225h308v225h96v-559q0 -78 -43 -124.5t-122 -46.5z" />
    <glyph glyph-name="uni04C9" unicode="&#x4c9;" horiz-adv-x="848" 
d="M611 700h100v-700h-100v700zM209 0h-100v700h100v-700zM620 312h-421v87h421v-87zM663 -153l44 179l39 -26h-131v87h199l-71 -240h-80z" />
    <glyph glyph-name="uni04CA" unicode="&#x4ca;" horiz-adv-x="702" 
d="M93 0v530h96v-225h302v225h96v-530h-96v222h-302v-222h-96zM536 -113l36 138l58 -25h-138v84h180l-58 -197h-78z" />
    <glyph glyph-name="uni04CB" unicode="&#x4cb;" horiz-adv-x="732" 
d="M320 254q-128 0 -198.5 60t-70.5 171v215h99v-204q0 -74 47.5 -114t132.5 -40q52 0 105.5 13t105.5 37v-87q-57 -25 -113 -38t-108 -13zM403 -153v240h220v-87h-137l10 26v-179h-93zM524 0v700h99v-700h-99z" />
    <glyph glyph-name="uni04CC" unicode="&#x4cc;" horiz-adv-x="606" 
d="M246 191q-97 0 -152 44.5t-55 138.5v156h96v-150q0 -56 35 -83t96 -27q77 0 158 38v-75q-42 -20 -87 -31t-91 -11zM325 -113v193h180v-80h-113l24 25v-138h-91zM417 0v530h96v-530h-96z" />
    <glyph glyph-name="uni04CD" unicode="&#x4cd;" horiz-adv-x="1000" 
d="M109 0v700h82l314 -529h-44l310 529h82l1 -700h-96l-1 549h23l-276 -464h-46l-278 464h25v-549h-96zM813 -153l44 179l39 -26h-131v87h199l-71 -240h-80z" />
    <glyph glyph-name="uni04CE" unicode="&#x4ce;" horiz-adv-x="829" 
d="M93 0v530h99l228 -392h-40l234 392h90v-530h-87v422l16 -9l-214 -353h-42l-215 360l19 4v-424h-88zM661 -113l36 138l58 -25h-138v84h180l-58 -197h-78z" />
    <glyph glyph-name="uni04CF" unicode="&#x4cf;" horiz-adv-x="283" 
d="M94 0v742h96v-742h-96z" />
    <glyph glyph-name="uni04D0" unicode="&#x4d0;" horiz-adv-x="758" 
d="M12 0l317 700h99l318 -700h-105l-283 644h40l-283 -644h-103zM147 175l27 80h394l29 -80h-450zM380 749q-82 0 -126.5 36t-45.5 101h71q1 -39 28 -60.5t73 -21.5q45 0 72.5 21.5t28.5 60.5h70q-1 -65 -45.5 -101t-125.5 -36z" />
    <glyph glyph-name="uni04D1" unicode="&#x4d1;" horiz-adv-x="589" 
d="M418 0v112l-5 21v191q0 61 -35.5 94.5t-106.5 33.5q-47 0 -92 -15.5t-76 -41.5l-40 72q41 33 98.5 50.5t120.5 17.5q109 0 168 -53t59 -162v-320h-91zM244 -6q-59 0 -103.5 20t-68.5 55.5t-24 80.5q0 43 20.5 78t67 56t125.5 21h168v-69h-164q-72 0 -97 -24t-25 -58
q0 -39 31 -62.5t86 -23.5q54 0 94.5 24t58.5 70l19 -66q-19 -47 -67 -74.5t-121 -27.5zM289 599q-73 0 -114.5 35.5t-42.5 102.5h65q1 -38 25.5 -60t65.5 -22t66 22t26 60h67q-1 -67 -43 -102.5t-115 -35.5z" />
    <glyph glyph-name="uni04D2" unicode="&#x4d2;" horiz-adv-x="758" 
d="M12 0l317 700h99l318 -700h-105l-283 644h40l-283 -644h-103zM147 175l27 80h394l29 -80h-450zM472 774q-21 0 -36 14.5t-15 36.5q0 23 15 37.5t36 14.5t36 -14.5t15 -37.5q0 -22 -15 -36.5t-36 -14.5zM286 774q-21 0 -36 14.5t-15 36.5q0 23 15 37.5t36 14.5t36 -14.5
t15 -37.5q0 -22 -15 -36.5t-36 -14.5z" />
    <glyph glyph-name="uni04D3" unicode="&#x4d3;" horiz-adv-x="589" 
d="M418 0v112l-5 21v191q0 61 -35.5 94.5t-106.5 33.5q-47 0 -92 -15.5t-76 -41.5l-40 72q41 33 98.5 50.5t120.5 17.5q109 0 168 -53t59 -162v-320h-91zM244 -6q-59 0 -103.5 20t-68.5 55.5t-24 80.5q0 43 20.5 78t67 56t125.5 21h168v-69h-164q-72 0 -97 -24t-25 -58
q0 -39 31 -62.5t86 -23.5q54 0 94.5 24t58.5 70l19 -66q-19 -47 -67 -74.5t-121 -27.5zM382 624q-21 0 -36 14.5t-15 36.5q0 23 15 37.5t36 14.5t36 -14.5t15 -37.5q0 -22 -15 -36.5t-36 -14.5zM196 624q-21 0 -36 14.5t-15 36.5q0 23 15 37.5t36 14.5t36 -14.5t15 -37.5
q0 -22 -15 -36.5t-36 -14.5z" />
    <glyph glyph-name="uni04D4" unicode="&#x4d4;" horiz-adv-x="1046" 
d="M7 0l417 700h100v-87h-88l61 44l-387 -657h-103zM185 175l6 80h333v-80h-339zM582 398h359v-85h-360zM590 87h409v-87h-508v700h494v-87h-395v-526z" />
    <glyph glyph-name="uni04D5" unicode="&#x4d5;" horiz-adv-x="995" 
d="M254 -6q-97 0 -151.5 44.5t-54.5 115.5q0 40 20.5 74t67 55t125.5 21h167v-69h-163q-71 0 -96.5 -23.5t-25.5 -55.5q0 -41 31.5 -64.5t87.5 -23.5q71 0 111 36.5t40 96.5v123q0 61 -35.5 94.5t-105.5 33.5q-48 0 -93 -15.5t-76 -41.5l-40 72q41 33 98.5 50.5t119.5 17.5
q92 0 146 -36.5t69 -107.5l-46 6q31 64 91.5 101t139.5 37q57 0 105.5 -19.5t84 -55.5t55 -85t19.5 -107q0 -10 -0.5 -18t-2.5 -15h-452v69h402l-40 -26q0 57 -24 96t-63.5 59.5t-84.5 20.5q-43 0 -82.5 -20.5t-64 -60t-24.5 -97.5v-16q0 -53 24 -94.5t67.5 -64.5t101.5 -23
q47 0 85 16t68 48l54 -62q-37 -43 -90.5 -64.5t-119.5 -21.5q-61 0 -115 19t-94 59t-62 103l62 -2q-12 -67 -48.5 -106.5t-86 -56t-101.5 -16.5z" />
    <glyph glyph-name="uni04D6" unicode="&#x4d6;" horiz-adv-x="665" 
d="M200 398h360v-85h-360v85zM209 87h408v-87h-508v700h494v-87h-394v-526zM357 749q-82 0 -126.5 36t-45.5 101h71q1 -39 28 -60.5t73 -21.5q45 0 72.5 21.5t28.5 60.5h70q-1 -65 -45.5 -101t-125.5 -36z" />
    <glyph glyph-name="uni04D7" unicode="&#x4d7;" horiz-adv-x="631" 
d="M329 -6q-85 0 -149.5 35t-100 96t-35.5 140t34.5 140t95 95.5t136.5 34.5q77 0 136 -34t92.5 -95.5t33.5 -143.5q0 -6 -0.5 -14t-1.5 -15h-451v69h401l-39 -24q1 51 -21 91t-60.5 62.5t-89.5 22.5q-50 0 -89 -22.5t-61 -63t-22 -92.5v-16q0 -53 24.5 -94.5t68.5 -64.5
t101 -23q47 0 85.5 16t67.5 48l53 -62q-36 -42 -89.5 -64t-119.5 -22zM309 599q-73 0 -114.5 35.5t-42.5 102.5h65q1 -38 25.5 -60t65.5 -22t66 22t26 60h67q-1 -67 -43 -102.5t-115 -35.5z" />
    <glyph glyph-name="uni04D8" unicode="&#x4d8;" horiz-adv-x="823" 
d="M403 -8q-74 0 -139.5 25t-115.5 71.5t-78.5 112t-28.5 146.5q0 12 0.5 23t2.5 23h694v-73h-621l24 30q-1 -60 19.5 -109.5t56 -85.5t83.5 -55.5t103 -19.5t103.5 19.5t85.5 55.5t58 85.5t21 109.5q0 63 -22 112.5t-60.5 84.5t-87.5 53.5t-104 18.5t-110.5 -21t-105.5 -64
l-72 65q64 55 139.5 82t150.5 27q74 0 140.5 -24t119 -69.5t82.5 -112t30 -150.5q0 -83 -29.5 -149.5t-81 -113.5t-117.5 -72t-140 -25z" />
    <glyph glyph-name="uni04D9" unicode="&#x4d9;" horiz-adv-x="627" 
d="M298 535q86 0 150 -34.5t100 -95.5t36 -140t-34.5 -140t-95 -96t-137.5 -35q-76 0 -135 34.5t-92.5 96t-33.5 142.5v15t1 15h451v-70h-400l38 24q0 -51 22 -90.5t60.5 -62t88.5 -22.5q51 0 90 22.5t60.5 63t21.5 92.5v16q0 54 -24 94.5t-67.5 63.5t-101.5 23
q-47 0 -85.5 -15.5t-67.5 -48.5l-53 62q36 42 89.5 64t118.5 22z" />
    <glyph glyph-name="uni04DA" unicode="&#x4da;" horiz-adv-x="823" 
d="M403 -8q-74 0 -139.5 25t-115.5 71.5t-78.5 112t-28.5 146.5q0 12 0.5 23t2.5 23h694v-73h-621l24 30q-1 -60 19.5 -109.5t56 -85.5t83.5 -55.5t103 -19.5t103.5 19.5t85.5 55.5t58 85.5t21 109.5q0 63 -22 112.5t-60.5 84.5t-87.5 53.5t-104 18.5t-110.5 -21t-105.5 -64
l-72 65q64 55 139.5 82t150.5 27q74 0 140.5 -24t119 -69.5t82.5 -112t30 -150.5q0 -83 -29.5 -149.5t-81 -113.5t-117.5 -72t-140 -25zM506 774q-21 0 -36 14.5t-15 36.5q0 23 15 37.5t36 14.5t36 -14.5t15 -37.5q0 -22 -15 -36.5t-36 -14.5zM320 774q-21 0 -36 14.5
t-15 36.5q0 23 15 37.5t36 14.5t36 -14.5t15 -37.5q0 -22 -15 -36.5t-36 -14.5z" />
    <glyph glyph-name="uni04DB" unicode="&#x4db;" horiz-adv-x="627" 
d="M298 535q86 0 150 -34.5t100 -95.5t36 -140t-34.5 -140t-95 -96t-137.5 -35q-76 0 -135 34.5t-92.5 96t-33.5 142.5v15t1 15h451v-70h-400l38 24q0 -51 22 -90.5t60.5 -62t88.5 -22.5q51 0 90 22.5t60.5 63t21.5 92.5v16q0 54 -24 94.5t-67.5 63.5t-101.5 23
q-47 0 -85.5 -15.5t-67.5 -48.5l-53 62q36 42 89.5 64t118.5 22zM412 624q-21 0 -36 14.5t-15 36.5q0 23 15 37.5t36 14.5t36 -14.5t15 -37.5q0 -22 -15 -36.5t-36 -14.5zM226 624q-21 0 -36 14.5t-15 36.5q0 23 15 37.5t36 14.5t36 -14.5t15 -37.5q0 -22 -15 -36.5
t-36 -14.5z" />
    <glyph glyph-name="uni04DC" unicode="&#x4dc;" horiz-adv-x="1029" 
d="M893 0l-219 345l84 50l252 -395h-117zM534 308v88h205v-88h-205zM764 339l-93 14l215 347h107zM136 0h-117l251 395l85 -50zM564 0h-98v700h98v-700zM496 308h-206v88h206v-88zM266 339l-230 361h107l214 -347zM609 774q-21 0 -36 14.5t-15 36.5q0 23 15 37.5t36 14.5
t36 -14.5t15 -37.5q0 -22 -15 -36.5t-36 -14.5zM423 774q-21 0 -36 14.5t-15 36.5q0 23 15 37.5t36 14.5t36 -14.5t15 -37.5q0 -22 -15 -36.5t-36 -14.5z" />
    <glyph glyph-name="uni04DD" unicode="&#x4dd;" horiz-adv-x="849" 
d="M722 0l-169 258l79 48l204 -306h-114zM443 224v82h172v-82h-172zM641 254l-91 12l169 264h103zM127 0h-114l203 306l79 -48zM472 0h-96v530h96v-530zM405 224h-171v82h171v-82zM208 254l-181 276h102l169 -264zM517 624q-21 0 -36 14.5t-15 36.5q0 23 15 37.5t36 14.5
t36 -14.5t15 -37.5q0 -22 -15 -36.5t-36 -14.5zM331 624q-21 0 -36 14.5t-15 36.5q0 23 15 37.5t36 14.5t36 -14.5t15 -37.5q0 -22 -15 -36.5t-36 -14.5z" />
    <glyph glyph-name="uni04DE" unicode="&#x4de;" horiz-adv-x="642" 
d="M32 76l35 74q46 -36 101.5 -54t110.5 -18.5t101.5 14.5t74.5 45t28 74q0 54 -43.5 82t-120.5 28h-156v81h149q67 0 104.5 27.5t37.5 76.5q0 37 -22.5 62.5t-61 38.5t-87 13.5t-99.5 -13t-98 -42.5l-32 82q64 36 133.5 50.5t134.5 9t117.5 -30t84 -64t31.5 -94.5
q0 -50 -26 -88.5t-72 -59t-107 -20.5l4 27q70 0 121.5 -22.5t80 -63.5t28.5 -95q0 -51 -26 -90.5t-70.5 -66t-101 -38.5t-118.5 -8t-122.5 24t-113.5 59zM412 774q-21 0 -36 14.5t-15 36.5q0 23 15 37.5t36 14.5t36 -14.5t15 -37.5q0 -22 -15 -36.5t-36 -14.5zM226 774
q-21 0 -36 14.5t-15 36.5q0 23 15 37.5t36 14.5t36 -14.5t15 -37.5q0 -22 -15 -36.5t-36 -14.5z" />
    <glyph glyph-name="uni04DF" unicode="&#x4df;" horiz-adv-x="544" 
d="M248 -7q70 0 124.5 20.5t86.5 57t32 84.5q0 60 -51 95t-140 35l-4 -23q52 0 92 17t64 46.5t24 67.5q0 45 -31.5 78t-85.5 50.5t-123 15.5q-46 -1 -92.5 -13.5t-94.5 -35.5l26 -75q43 21 84.5 31t81.5 11q41 0 71.5 -9t47.5 -26t17 -41q0 -22 -14.5 -38.5t-40.5 -24.5
t-61 -8h-90v-69h96q59 0 92 -20t33 -57q0 -26 -18 -45.5t-51.5 -30.5t-79.5 -11q-50 0 -99 13.5t-87 37.5l-29 -73q45 -29 102.5 -44.5t117.5 -15.5zM356 624q-21 0 -36 14.5t-15 36.5q0 23 15 37.5t36 14.5t36 -14.5t15 -37.5q0 -22 -15 -36.5t-36 -14.5zM170 624
q-21 0 -36 14.5t-15 36.5q0 23 15 37.5t36 14.5t36 -14.5t15 -37.5q0 -22 -15 -36.5t-36 -14.5z" />
    <glyph glyph-name="uni04E0" unicode="&#x4e0;" horiz-adv-x="623" 
d="M297 -8q-80 0 -151.5 23t-114.5 61l37 79q37 -33 97 -54.5t130 -21.5q85 0 131.5 34t46.5 93q0 56 -45 89t-140 33h-58v69l226 256l9 -38h-407v85h483v-68l-225 -255l-43 29h33q90 0 149 -25t89 -70.5t30 -104.5t-30.5 -108t-91.5 -77.5t-155 -28.5z" />
    <glyph glyph-name="uni04E1" unicode="&#x4e1;" horiz-adv-x="527" 
d="M232 -201q-77 0 -144.5 24t-107.5 64l37 80q34 -35 90.5 -57t120.5 -22q82 0 124.5 35t42.5 96q0 59 -41 94t-130 35h-57v68l211 265l9 -36h-382v85h459v-69l-212 -266l-43 31h32q127 0 190 -57.5t63 -149.5q0 -61 -29 -110.5t-87 -79.5t-146 -30z" />
    <glyph glyph-name="uni04E2" unicode="&#x4e2;" horiz-adv-x="823" 
d="M109 0v700h99v-540l414 540h92v-700h-98v539l-415 -539h-92zM247 792v60h326v-60h-326z" />
    <glyph glyph-name="uni04E3" unicode="&#x4e3;" horiz-adv-x="694" 
d="M93 0v530h96v-386l325 386h87v-530h-96v386l-324 -386h-88zM178 642v60h326v-60h-326z" />
    <glyph glyph-name="uni04E4" unicode="&#x4e4;" horiz-adv-x="823" 
d="M109 0v700h99v-540l414 540h92v-700h-98v539l-415 -539h-92zM503 774q-21 0 -36 14.5t-15 36.5q0 23 15 37.5t36 14.5t36 -14.5t15 -37.5q0 -22 -15 -36.5t-36 -14.5zM317 774q-21 0 -36 14.5t-15 36.5q0 23 15 37.5t36 14.5t36 -14.5t15 -37.5q0 -22 -15 -36.5
t-36 -14.5z" />
    <glyph glyph-name="uni04E5" unicode="&#x4e5;" horiz-adv-x="694" 
d="M93 0v530h96v-386l325 386h87v-530h-96v386l-324 -386h-88zM434 624q-21 0 -36 14.5t-15 36.5q0 23 15 37.5t36 14.5t36 -14.5t15 -37.5q0 -22 -15 -36.5t-36 -14.5zM248 624q-21 0 -36 14.5t-15 36.5q0 23 15 37.5t36 14.5t36 -14.5t15 -37.5q0 -22 -15 -36.5t-36 -14.5
z" />
    <glyph glyph-name="uni04E6" unicode="&#x4e6;" horiz-adv-x="848" 
d="M424 -8q-80 0 -148.5 27t-118.5 75.5t-78 113.5t-28 142t28 142t78 113.5t118 75.5t149 27q80 0 147.5 -26.5t118 -75t78 -113.5t27.5 -143t-27.5 -143t-78 -113.5t-118 -75t-147.5 -26.5zM424 81q58 0 107.5 20t86 56.5t57 85.5t20.5 107t-20.5 107t-57 85.5t-86 56.5
t-107.5 20q-59 0 -108.5 -20t-86.5 -56.5t-57.5 -85.5t-20.5 -107t20.5 -107t57.5 -85.5t86.5 -56.5t108.5 -20zM517 774q-21 0 -36 14.5t-15 36.5q0 23 15 37.5t36 14.5t36 -14.5t15 -37.5q0 -22 -15 -36.5t-36 -14.5zM331 774q-21 0 -36 14.5t-15 36.5q0 23 15 37.5
t36 14.5t36 -14.5t15 -37.5q0 -22 -15 -36.5t-36 -14.5z" />
    <glyph glyph-name="uni04E7" unicode="&#x4e7;" horiz-adv-x="641" 
d="M320 -6q-80 0 -142 35t-98 96.5t-36 139.5q0 79 36 140t98 95.5t142 34.5q79 0 141.5 -34.5t98 -95t35.5 -140.5q0 -79 -35.5 -140t-98 -96t-141.5 -35zM320 78q51 0 91.5 23t63.5 65.5t23 98.5q0 57 -23 98.5t-63.5 64.5t-91.5 23t-91 -23t-64 -64.5t-24 -98.5
q0 -56 24 -98.5t64 -65.5t91 -23zM412 624q-21 0 -36 14.5t-15 36.5q0 23 15 37.5t36 14.5t36 -14.5t15 -37.5q0 -22 -15 -36.5t-36 -14.5zM226 624q-21 0 -36 14.5t-15 36.5q0 23 15 37.5t36 14.5t36 -14.5t15 -37.5q0 -22 -15 -36.5t-36 -14.5z" />
    <glyph glyph-name="uni04E8" unicode="&#x4e8;" horiz-adv-x="848" 
d="M424 708q80 0 147.5 -26.5t118 -75t78 -113.5t27.5 -143t-27.5 -143t-78 -113.5t-118 -75t-147.5 -26.5q-81 0 -149 27t-118 75.5t-78 113.5t-28 142t28 142t78 113.5t118 75.5t149 27zM424 619q-53 0 -99.5 -17t-82.5 -47.5t-58.5 -72.5t-28.5 -92h537q-6 50 -29 92
t-58.5 72.5t-81.5 47.5t-99 17zM424 81q53 0 99 17t81.5 47.5t58.5 72.5t29 93h-537q6 -51 28.5 -93t58.5 -72.5t82.5 -47.5t99.5 -17z" />
    <glyph glyph-name="uni04E9" unicode="&#x4e9;" horiz-adv-x="650" 
d="M325 535q82 0 145 -34t99.5 -95.5t36.5 -140.5t-36.5 -140t-99.5 -96t-145 -35q-81 0 -144.5 35t-100 96t-36.5 140t36.5 140.5t100 95.5t144.5 34zM325 459q-50 0 -89.5 -20t-64.5 -55.5t-33 -84.5h373q-6 48 -31.5 84t-65 56t-89.5 20zM325 71q50 0 89.5 20t65 56
t31.5 84h-373q7 -48 32.5 -84t65.5 -56t89 -20z" />
    <glyph glyph-name="uni04EA" unicode="&#x4ea;" horiz-adv-x="848" 
d="M424 708q80 0 147.5 -26.5t118 -75t78 -113.5t27.5 -143t-27.5 -143t-78 -113.5t-118 -75t-147.5 -26.5q-81 0 -149 27t-118 75.5t-78 113.5t-28 142t28 142t78 113.5t118 75.5t149 27zM424 619q-53 0 -99.5 -17t-82.5 -47.5t-58.5 -72.5t-28.5 -92h537q-6 50 -29 92
t-58.5 72.5t-81.5 47.5t-99 17zM424 81q53 0 99 17t81.5 47.5t58.5 72.5t29 93h-537q6 -51 28.5 -93t58.5 -72.5t82.5 -47.5t99.5 -17zM517 774q-21 0 -36 14.5t-15 36.5q0 23 15 37.5t36 14.5t36 -14.5t15 -37.5q0 -22 -15 -36.5t-36 -14.5zM331 774q-21 0 -36 14.5
t-15 36.5q0 23 15 37.5t36 14.5t36 -14.5t15 -37.5q0 -22 -15 -36.5t-36 -14.5z" />
    <glyph glyph-name="uni04EB" unicode="&#x4eb;" horiz-adv-x="650" 
d="M325 535q82 0 145 -34t99.5 -95.5t36.5 -140.5t-36.5 -140t-99.5 -96t-145 -35q-81 0 -144.5 35t-100 96t-36.5 140t36.5 140.5t100 95.5t144.5 34zM325 459q-50 0 -89.5 -20t-64.5 -55.5t-33 -84.5h373q-6 48 -31.5 84t-65 56t-89.5 20zM325 71q50 0 89.5 20t65 56
t31.5 84h-373q7 -48 32.5 -84t65.5 -56t89 -20zM418 624q-21 0 -36 14.5t-15 36.5q0 23 15 37.5t36 14.5t36 -14.5t15 -37.5q0 -22 -15 -36.5t-36 -14.5zM232 624q-21 0 -36 14.5t-15 36.5q0 23 15 37.5t36 14.5t36 -14.5t15 -37.5q0 -22 -15 -36.5t-36 -14.5z" />
    <glyph glyph-name="uni04EC" unicode="&#x4ec;" horiz-adv-x="707" 
d="M212 315v82h375v-82h-375zM302 708q76 0 140 -26.5t111.5 -75t74 -113.5t26.5 -143t-26.5 -143t-74 -113.5t-111.5 -75t-140 -26.5q-84 0 -154.5 28t-118.5 82l63 63q42 -43 93.5 -63t111.5 -20q55 0 102 20t81.5 55.5t53.5 85t19 107.5t-19 107.5t-53.5 85t-81.5 55.5
t-102 20q-60 0 -111.5 -20t-93.5 -63l-63 63q48 54 118.5 82t154.5 28zM413 774q-21 0 -36 14.5t-15 36.5q0 23 15 37.5t36 14.5t36 -14.5t15 -37.5q0 -22 -15 -36.5t-36 -14.5zM227 774q-21 0 -36 14.5t-15 36.5q0 23 15 37.5t36 14.5t36 -14.5t15 -37.5q0 -22 -15 -36.5
t-36 -14.5z" />
    <glyph glyph-name="uni04ED" unicode="&#x4ed;" horiz-adv-x="575" 
d="M175 233v71h297v-71h-297zM246 536q82 0 147 -35t102 -96t37 -140q0 -78 -37 -140t-102 -97t-147 -35q-68 0 -125.5 22t-96.5 64l56 56q33 -32 73.5 -47.5t88.5 -15.5q58 0 103 24.5t71.5 68.5t26.5 100t-26.5 99.5t-71.5 68.5t-103 25q-48 0 -88.5 -16t-73.5 -48l-56 55
q39 43 96.5 65t125.5 22zM356 624q-21 0 -36 14.5t-15 36.5q0 23 15 37.5t36 14.5t36 -14.5t15 -37.5q0 -22 -15 -36.5t-36 -14.5zM170 624q-21 0 -36 14.5t-15 36.5q0 23 15 37.5t36 14.5t36 -14.5t15 -37.5q0 -22 -15 -36.5t-36 -14.5z" />
    <glyph glyph-name="uni04EE" unicode="&#x4ee;" horiz-adv-x="691" 
d="M107 88q52 -19 96 -9.5t79 66.5l34 54l10 11l257 490h99l-311 -576q-35 -66 -81.5 -99.5t-100 -37t-108.5 20.5zM323 121l-307 579h107l255 -499zM177 792v60h326v-60h-326z" />
    </font>
</defs>
</svg>
